Loading...
Error

Скачать Остров доктора Моро / The Island of Dr. Moreau (Дон Тейлор) [1977, ужасы, фантастика, фэнтези, триллер, мелодрама, приключения, BDRemux] [1080р] [MVO]x3+[Оригинал Eng]+[Sub Eng] торрент без регистрации

Статистика раздачи
Размер:  16,58 GB   |    Скачан:  12 раз
Сидов:  1  [  0 KB/s  ]  
 
 
 
Автор Сообщение

Marsianka

[] 

Информация о фильме
Название: Остров доктора Моро
Оригинальное название: The Island of Dr. Moreau
Год выхода: 1977
Жанр: ужасы, фантастика, фэнтези, триллер, мелодрама, приключения
Режиссер: Дон Тейлор
В ролях: Берт Ланкастер, Майкл Йорк, Найджел Девенпорт, Барбара Каррера, Ричард Бейсхарт, Ник Крэвет, Великий Джон Л., Боб Озман, Фумио Демура, Гари Бэксли

О фильме: На заброшенном острове безумный ученый доктор Моро с помощью специальной сыворотки превращает животных в подобие людей. Существует также и сыворотка, способная человека превратить в животное. По крайней мере, так полагает доктор Моро, и начинает испытывать ее действие на незваном госте: потерпевшем кораблекрушение моряке. И только бунт человеко-зверей поможет бедняге покинуть кошмарный остров.



Страна: США
Продолжительность: 01:38:51
Перевод: Перевод 1: Профессиональный (многоголосый, закадровый) НТВ
Перевод 2: Профессиональный (многоголосый, закадровый) CB-Дубль
Перевод 3: Профессиональный (многоголосый, закадровый)
Субтитры: английские
Оригинальная аудиодорожка: английский
Файл
Качество: BDRemux 1080р
Видео: MPEG-4 AVC Video; 22966 kbps; 1080p; 23.976 fps; 16:9; High Profile 4.1
Аудио 1: Russian; AC3; 48.0 KHz; 2ch; 192 Kbps MVO НТВ
Аудио 2: Russian; AC3; 48.0 KHz; 2ch; 192 Kbps MVO CB-Дубль
Аудио 3: Russian; AC3; 48.0 KHz; 2ch; 384 Kbps MVO
Аудио 4: English; FLAC; 48.0 KHz; 2ch; 253 Kbps
Format : Matroska
Format version : Version 4 / Version 2
File size : 16.6 GiB
Duration : 1h 38mn
Overall bit rate mode : Variable
Overall bit rate : 24.0 Mbps
Encoded date : UTC 2016-04-12 07:05:36
Writing application : mkvmerge v8.3.0 ('Over the Horizon') 64bit
Writing library : libebml v1.3.1 + libmatroska v1.4.2
Attachements : poster.jpg
DURATION : 01:38:51.008000000
NUMBER_OF_FRAMES : 185344
NUMBER_OF_BYTES : 284688384
_STATISTICS_WRITING_APP : mkvmerge v8.3.0 ('Over the Horizon') 64bit
_STATISTICS_WRITING_DATE_UT : 2016-04-12 07:05:36
_STATISTICS_TAGS : BPS DURATION NUMBER_OF_FRAMES NUMBER_OF_BYTES

Video
ID : 1
Format : AVC
Format/Info : Advanced Video Codec
Format profile : High@L4.1
Format settings, CABAC : Yes
Format settings, ReFrames : 4 frames
Format settings, GOP : M=3, N=24
Codec ID : V_MPEG4/ISO/AVC
Duration : 1h 38mn
Bit rate mode : Variable
Maximum bit rate : 35.0 Mbps
Width : 1 920 pixels
Height : 1 080 pixels
Display aspect ratio : 16:9
Frame rate mode : Constant
Frame rate : 23.976 fps
Standard : NTSC
Color space : YUV
Chroma subsampling : 4:2:0
Bit depth : 8 bits
Scan type : Progressive
Default : Yes
Forced : No
Color range : Limited
Color primaries : BT.709
Transfer characteristics : BT.709
Matrix coefficients : BT.709

Audio #1
ID : 2
Format : AC-3
Format/Info : Audio Coding 3
Mode extension : CM (complete main)
Format settings, Endianness : Big
Codec ID : A_AC3
Duration : 1h 38mn
Bit rate mode : Constant
Bit rate : 192 Kbps
Channel(s) : 2 channels
Channel positions : Front: L R
Sampling rate : 48.0 KHz
Compression mode : Lossy
Stream size : 136 MiB (1%)
Title : MVO НТВ
Language : Russian
Default : Yes
Forced : No

Audio #2
ID : 3
Format : AC-3
Format/Info : Audio Coding 3
Mode extension : CM (complete main)
Format settings, Endianness : Big
Codec ID : A_AC3
Duration : 1h 38mn
Bit rate mode : Constant
Bit rate : 192 Kbps
Channel(s) : 2 channels
Channel positions : Front: L R
Sampling rate : 48.0 KHz
Compression mode : Lossy
Stream size : 136 MiB (1%)
Title : MVO CB-Дубль
Language : Russian
Default : No
Forced : No

Audio #3
ID : 4
Format : AC-3
Format/Info : Audio Coding 3
Mode extension : CM (complete main)
Format settings, Endianness : Big
Codec ID : A_AC3
Duration : 1h 38mn
Bit rate mode : Constant
Bit rate : 384 Kbps
Channel(s) : 2 channels
Channel positions : Front: L R
Sampling rate : 48.0 KHz
Compression mode : Lossy
Stream size : 272 MiB (2%)
Title : MVO
Language : Russian
Default : No
Forced : No

Audio #4
ID : 5
Format : FLAC
Format/Info : Free Lossless Audio Codec
Codec ID : A_FLAC
Duration : 1h 38mn
Bit rate mode : Variable
Channel(s) : 2 channels
Sampling rate : 48.0 KHz
Bit depth : 16 bits
Writing library : libFLAC 1.3.1 (UTC 2014-11-25)
Language : English
Default : No
Forced : No

Text
ID : 6
Format : UTF-8
Codec ID : S_TEXT/UTF8
Codec ID/Info : UTF-8 Plain Text
Language : English
Default : No
Forced : No



Скачать Остров.доктора.Моро.The.Island.of.Dr.Moreau.(Дон.Тейлор).[1977.ужасы.фантастика.фэнтези.триллер.мелодрама.приключения.BDRemux].[1080р].[MVO]x3+[Оригинал.Eng]+[Sub.Eng].torrent без регистрации
Золото ЗОЛОТАЯ РАЗДАЧА! СКАЧАННОЕ НЕ ЗАСЧИТЫВАЕТСЯ! Золото
Дата: Зарегистрирован   [ Тип: внутренний ] Как тут cкачать?
MAGNET ссылка
MAGNET ссылка


Скачать .torrent

84 KB

Статус: проверено DHT
Скачан: торрент - 12 раз, раздача полностью - 0 раз
Размер: 16,58 GB
Оценка:  - (Голосов: 0)
Поблагодарили: 0
Поделиться ссылкой на эту раздачу с друзьями:
В контактеFacebookОдноклассникиTwitterLivejournalМой МирLiveinternet
 

 
Показать сообщения:    


Вы не можете начинать темы
Вы не можете отвечать на сообщения
Вы не можете редактировать свои сообщения
Вы не можете удалять свои сообщения
Вы не можете голосовать в опросах
Вы не можете прикреплять файлы к сообщениям
Вы можете скачивать файлы