Loading...
Error

Скачать Остров доктора Моро / The Island of Dr. Moreau (Дон Тейлор) [1977, ужасы, фантастика, BDRip] [1080p] [MVO]x3+[Оригинал Eng]+[Sub Eng] торрент без регистрации

Статистика раздачи
Размер:  9,94 GB   |    Скачан:  17 раз
Сидов:  2  [  0 KB/s  ]  
 
 
 
Автор Сообщение

Marsianka

[] 

Информация о фильме
Название: Остров доктора Моро
Оригинальное название: The Island of Dr. Moreau
Год выпуска: 1977
Жанр: ужасы, фантастика
Выпущено: США, American International Pictures (AIP), Cinema 77, Major Productions
Продолжительность: 01:38:51
Перевод: Профессиональный многоголосый
Режиссер: Дон Тейлор
В ролях: Бёрт Ланкастер, Майкл Йорк, Найджел Девенпорт, Барбара Каррера, Ричард Бейсхарт, Ник Крэвет, Джон Л. Великий, Фумио Демура, Гари Бэксли
О фильме:
Экранизация одноимённого произведения Герберта Уэллса.
Главной целью своих опытов Моро ставит изучить до конца пластичность живых организмов, поэтому вот уже одиннадцать лет находясь на острове он пытается создать из зверя человека. Создано уже около 60 зверолюдей, начиная от самых маленьких (ленивцеподобное существо) и заканчивая монстрами (леопардо-человек, гиено-свинья, волко-медведь и т. д.). Все события, происходящие на острове, показываются глазами Брэддока — инженера-механика яхты «Леди Вейн», потерпевшей кораблекрушение. Брэддоку удалось спастись в шлюпке, которая прибилась к острову доктора Моро.


Файл
Качество: BDRip 1080p
Видео: MPEG-4 AVC, 13,6 Мбит/сек, 1920x1038, 23,976 кадра/сек
Аудио 1:Русский: AC3, 2 ch, 192 Кбит/сек |MVO, НТВ|
Аудио 2:Русский: AC3, 2 ch, 192 Кбит/сек |MVO, CB-Дубль|
Аудио 3:Русский: AC3, 2 ch, 192 Кбит/сек |MVO|
Аудио 4:Английский: AC3, 2 ch, 192 Кбит/сек |Оригинал|
Субтитры: Английские
Навигация по главам: есть
Релиз от: mzma
Общее
Уникальный идентификатор : 248507283490742128353340781941531354011 (0xBAF4C309BC80F9A9865D579F61BC239B)
Полное имя : The.Island.of.Dr.Moreau.1977.BDRip.1080p.KORSAR.mkv
Формат : Matroska
Версия формата : Version 2
Размер файла : 9,94 Гбайт
Продолжительность : 1 ч. 38 м.
Общий поток : 14,4 Мбит/сек
Дата кодирования : UTC 2017-03-16 00:06:04
Программа кодирования : mkvmerge v3.4.0 ('Rapunzel') сборка от May 15 2010 09:38:20
Библиотека кодирования : libebml v0.8.0 + libmatroska v0.9.0

Видео
Идентификатор : 1
Формат : AVC
Формат/Информация : Advanced Video Codec
Профиль формата : High@L4.1
Параметр CABAC формата : Да
Параметр ReFrames формата : 4 кадра
Идентификатор кодека : V_MPEG4/ISO/AVC
Продолжительность : 1 ч. 38 м.
Битрейт : 13,6 Мбит/сек
Ширина : 1920 пикселей
Высота : 1038 пикселей
Соотношение сторон : 1,85:1
Режим частоты кадров : Постоянный
Частота кадров : 23,976 (24000/1001) кадра/сек
Цветовое пространство : YUV
Субдискретизация насыщенности : 4:2:0
Битовая глубина : 8 бит
Тип развёртки : Прогрессивная
Бит/(Пиксели*Кадры) : 0.285
Размер потока : 9,21 Гбайт (93%)
Библиотека кодирования : x264 core 130 r2273 b3065e6
Настройки программы : cabac=1 / ref=4 / deblock=1:-3:-3 / analyse=0x3:0x113 / me=umh / subme=11 / psy=1 / psy_rd=1.00:0.00 / mixed_ref=1 / me_range=48 / chroma_me=1 / trellis=2 / 8x8dct=1 / cqm=0 / deadzone=21,11 / fast_pskip=0 / chroma_qp_offset=-2 / threads=6 / lookahead_threads=1 / sliced_threads=0 / nr=0 / decimate=0 / interlaced=0 / bluray_compat=0 / constrained_intra=0 / bframes=16 / b_pyramid=2 / b_adapt=2 / b_bias=0 / direct=3 / weightb=1 / open_gop=0 / weightp=2 / keyint=250 / keyint_min=23 / scenecut=40 / intra_refresh=0 / rc_lookahead=60 / rc=2pass / mbtree=1 / bitrate=13625 / ratetol=1.0 / qcomp=0.60 / qpmin=0 / qpmax=69 / qpstep=4 / cplxblur=20.0 / qblur=0.5 / vbv_maxrate=50000 / vbv_bufsize=62500 / nal_hrd=none / ip_ratio=1.40 / aq=2:1.00
Язык : English
Default : Да
Forced : Нет
Цветовой диапазон : Limited
Основные цвета : BT.709
Характеристики трансфера : BT.709
Коэффициенты матрицы : BT.709

Аудио #1
Идентификатор : 2
Формат : AC-3
Формат/Информация : Audio Coding 3
Расширение режима : CM (complete main)
Параметр Endianness формата : Big
Идентификатор кодека : A_AC3
Продолжительность : 1 ч. 38 м.
Вид битрейта : Постоянный
Битрейт : 192 Кбит/сек
Каналы : 2 канала
Расположение каналов : Front: L R
Частота : 48,0 КГц
Частота кадров : 31,250 кадров/сек (1536 spf)
Битовая глубина : 16 бит
Метод сжатия : С потерями
Размер потока : 136 Мбайт (1%)
Заголовок : MVO НТВ
Язык : Russian
Default : Да
Forced : Нет

Аудио #2
Идентификатор : 3
Формат : AC-3
Формат/Информация : Audio Coding 3
Расширение режима : CM (complete main)
Параметр Endianness формата : Big
Идентификатор кодека : A_AC3
Продолжительность : 1 ч. 38 м.
Вид битрейта : Постоянный
Битрейт : 192 Кбит/сек
Каналы : 2 канала
Расположение каналов : Front: L R
Частота : 48,0 КГц
Частота кадров : 31,250 кадров/сек (1536 spf)
Битовая глубина : 16 бит
Метод сжатия : С потерями
Размер потока : 136 Мбайт (1%)
Заголовок : MVO CB-Дубль
Язык : Russian
Default : Нет
Forced : Нет

Аудио #3
Идентификатор : 4
Формат : AC-3
Формат/Информация : Audio Coding 3
Расширение режима : CM (complete main)
Параметр Endianness формата : Big
Идентификатор кодека : A_AC3
Продолжительность : 1 ч. 38 м.
Вид битрейта : Постоянный
Битрейт : 192 Кбит/сек
Каналы : 2 канала
Расположение каналов : Front: L R
Частота : 48,0 КГц
Частота кадров : 31,250 кадров/сек (1536 spf)
Битовая глубина : 16 бит
Метод сжатия : С потерями
Размер потока : 136 Мбайт (1%)
Заголовок : MVO
Язык : Russian
Default : Нет
Forced : Нет

Аудио #4
Идентификатор : 5
Формат : AC-3
Формат/Информация : Audio Coding 3
Расширение режима : CM (complete main)
Параметр Endianness формата : Big
Идентификатор кодека : A_AC3
Продолжительность : 1 ч. 38 м.
Вид битрейта : Постоянный
Битрейт : 192 Кбит/сек
Каналы : 2 канала
Расположение каналов : Front: L R
Частота : 48,0 КГц
Частота кадров : 31,250 кадров/сек (1536 spf)
Битовая глубина : 16 бит
Метод сжатия : С потерями
Размер потока : 136 Мбайт (1%)
Язык : English
Default : Нет
Forced : Нет

Текст
Идентификатор : 6
Формат : UTF-8
Идентификатор кодека : S_TEXT/UTF8
Идентификатор кодека/Информация : UTF-8 Plain Text
Язык : English
Default : Нет
Forced : Нет

Меню
00:00:00.000 : en:Chapter 1
00:07:20.982 : en:Chapter 2
00:19:49.605 : en:Chapter 3
00:36:14.255 : en:Chapter 4
00:48:55.931 : en:Chapter 5
01:02:44.469 : en:Chapter 6
01:16:16.154 : en:Chapter 7
01:26:31.019 : en:Chapter 8
01:36:59.000 : en:Credits



Скачать Остров.доктора.Моро.The.Island.of.Dr.Moreau.(Дон.Тейлор).[1977.ужасы.фантастика.BDRip].[1080p].[MVO]x3+[Оригинал.Eng]+[Sub.Eng].torrent без регистрации
Золото ЗОЛОТАЯ РАЗДАЧА! СКАЧАННОЕ НЕ ЗАСЧИТЫВАЕТСЯ! Золото
Дата: Зарегистрирован   [ Тип: внешний ] Как тут cкачать?
MAGNET ссылка
MAGNET ссылка


Скачать .torrent

51 KB

Статус: проверено DHT
Скачан: торрент - 17 раз, раздача полностью - 1 раз
Размер: 9,94 GB
Оценка:  - (Голосов: 0)
Поблагодарили: 0
Поделиться ссылкой на эту раздачу с друзьями:
В контактеFacebookОдноклассникиTwitterLivejournalМой МирLiveinternet
 

 
Показать сообщения:    


Вы не можете начинать темы
Вы не можете отвечать на сообщения
Вы не можете редактировать свои сообщения
Вы не можете удалять свои сообщения
Вы не можете голосовать в опросах
Вы не можете прикреплять файлы к сообщениям
Вы можете скачивать файлы