Loading...
Error

Скачать Рим, открытый город / Roma città aperta (Роберто Росселлини) [1945, триллер, драма, военный, BDRemux] [1080р] [MVO]x2+[Оригинал]+[Sub]x3 торрент без регистрации

Статистика раздачи
Размер:  26,01 GB   |    Скачан:  23 раза
Сидов:  1  [  0 KB/s  ]  
 
 
 
Автор Сообщение

Marsianka

[] 

Информация о фильме
Название: Рим, открытый город
Оригинальное название: Roma città aperta
Год выхода: 1945
Жанр: триллер, драма, военный
Режиссер: Роберто Росселлини
В ролях: Альдо Фабрици, Анна Маньяни, Марчелло Пальеро, Вито Анникьярико, Нандо Бруно, Харри Файст, Джованна Галлетти, Франческо Гранжаке, Эдуардо Пассарелли, Мария Мики, Карла Ровере, Карло Синдичи, Йоп ван Хюльзен, Акош Толнаи, Катерина Ди Фуриа, Лаура Клара Гьюдиче, Тури Пандольфини, Амалия Пеллегрини, Спартако Риччи, Доретта Сестан, Альберто Тавацци

Описание: Рим в последние месяцы оккупации. Умирающая немецкая армия отчаянно хранит последние свои оплоты и жестоко расправляется с мятежниками. Но в сердце города уже родился свой отряд Сопротивления. Близок конец войны…



Страна: Италия
Продолжительность: 01:43:27
Перевод 1: Профессиональный (многоголосый закадровый) - Кармен Видео
Перевод 2: Профессиональный (многоголосый закадровый) - СВ-Дубль по заказу ВГТРК
Субтитры: русские, английские, итальянские
Оригинальная аудиодорожка: итальянский
Файл
Качество: BDRemux 1080р
Видео: 35000 Кбит/сек, AVC 1920*1080 (16:9), 23,976 кадра/сек
Аудио 1: Русский, 192 Кбит/сек, 48,0 КГц, 16 бит, 2 канала, AC-3 - Кармен Видео
Аудио 2: Русский, 192 Кбит/сек, 48,0 КГц, 16 бит, 2 канала, AC-3 - СВ-Дубль
Аудио 3: Итальянский, 572 Кбит/сек, 48,0 КГц, 24 бит, 1 канал, FLAC
Общее
Уникальный идентификатор : 210653394420059785012456675707460052756 (0x9E7A5E368FB7984F803C5927A504E714)
Полное имя : Рим, открытый город (1945) BDRemux 1080p.mkv
Формат : Matroska
Версия формата : Version 4 / Version 2
Размер файла : 26,0 Гбайт
Продолжительность : 1 ч. 43 м.
Режим общего битрейта : Переменный
Общий поток : 36,0 Мбит/сек
Название фильма : Roma citta aperta (1945)
Дата кодирования : UTC 2017-10-05 03:30:21
Программа кодирования : mkvmerge v16.0.0 ('Protest') 64-bit
Библиотека кодирования : libebml v1.3.5 + libmatroska v1.4.8

Видео
Идентификатор : 1
Формат : AVC
Формат/Информация : Advanced Video Codec
Профиль формата : High@L4.1
Настройки формата : CABAC / 4 Ref Frames
Параметр CABAC формата : Да
Параметр RefFrames формата : 4 кадра
Идентификатор кодека : V_MPEG4/ISO/AVC
Продолжительность : 1 ч. 43 м.
Вид битрейта : Переменный
Битрейт : 35,0 Мбит/сек
Максимальный битрейт : 37,0 Мбит/сек
Ширина : 1920 пикселей
Высота : 1080 пикселей
Соотношение сторон : 16:9
Режим частоты кадров : Постоянный
Частота кадров : 23,976 (24000/1001) кадра/сек
Цветовое пространство : YUV
Субдискретизация насыщенности : 4:2:0
Битовая глубина : 8 бит
Тип развёртки : Прогрессивная
Бит/(Пиксели*Кадры) : 0.705
Размер потока : 25,3 Гбайт (97%)
Язык : Italian
Default : Да
Forced : Нет

Аудио #1
Идентификатор : 2
Формат : AC-3
Формат/Информация : Audio Coding 3
Параметр Endianness формата : Big
Идентификатор кодека : A_AC3
Продолжительность : 1 ч. 43 м.
Вид битрейта : Постоянный
Битрейт : 192 Кбит/сек
Каналы : 2 канала
Расположение каналов : Front: L R
Частота : 48,0 КГц
Частота кадров : 31,250 кадров/сек (1536 SPF)
Битовая глубина : 16 бит
Метод сжатия : С потерями
Размер потока : 142 Мбайт (1%)
Заголовок : MVO
Язык : Russian
Default : Да
Forced : Нет

Аудио #2
Идентификатор : 3
Формат : AC-3
Формат/Информация : Audio Coding 3
Параметр Endianness формата : Big
Идентификатор кодека : A_AC3
Продолжительность : 1 ч. 43 м.
Вид битрейта : Постоянный
Битрейт : 192 Кбит/сек
Каналы : 2 канала
Расположение каналов : Front: L R
Частота : 48,0 КГц
Частота кадров : 31,250 кадров/сек (1536 SPF)
Битовая глубина : 16 бит
Метод сжатия : С потерями
Размер потока : 142 Мбайт (1%)
Заголовок : MVO
Язык : Russian
Default : Нет
Forced : Нет

Аудио #3
Идентификатор : 4
Формат : FLAC
Формат/Информация : Free Lossless Audio Codec
Идентификатор кодека : A_FLAC
Продолжительность : 1 ч. 43 м.
Вид битрейта : Переменный
Битрейт : 572 Кбит/сек
Каналы : 1 канал
Частота : 48,0 КГц
Частота кадров : 11,719 кадров/сек (4096 SPF)
Битовая глубина : 24 бит
Размер потока : 423 Мбайт (2%)
Заголовок : original
Библиотека кодирования : libFLAC 1.2.1 (UTC 2007-09-17)
Язык : Italian
Default : Нет
Forced : Нет

Текст #1
Идентификатор : 5
Формат : UTF-8
Идентификатор кодека : S_TEXT/UTF8
Идентификатор кодека/Информация : UTF-8 Plain Text
Продолжительность : 1 ч. 40 м.
Битрейт : 97 бит/сек
ElementCount : 1135
Размер потока : 71,7 Кбайт (0%)
Заголовок : srt
Язык : Russian
Default : Нет
Forced : Нет

Текст #2
Идентификатор : 6
Формат : UTF-8
Идентификатор кодека : S_TEXT/UTF8
Идентификатор кодека/Информация : UTF-8 Plain Text
Продолжительность : 1 ч. 40 м.
Битрейт : 52 бит/сек
ElementCount : 1268
Размер потока : 38,6 Кбайт (0%)
Заголовок : srt
Язык : English
Default : Нет
Forced : Нет

Текст #3
Идентификатор : 7
Формат : UTF-8
Идентификатор кодека : S_TEXT/UTF8
Идентификатор кодека/Информация : UTF-8 Plain Text
Продолжительность : 1 ч. 38 м.
Битрейт : 59 бит/сек
ElementCount : 1138
Размер потока : 42,7 Кбайт (0%)
Заголовок : srt
Язык : Italian
Default : Нет
Forced : Нет

Меню
00:00:00.000 : en:Chapter 1
00:08:05.193 : en:Chapter 2
00:09:45.626 : en:Chapter 3
00:14:07.805 : en:Chapter 4
00:16:55.097 : en:Chapter 5
00:19:23.912 : en:Chapter 6
00:22:45.822 : en:Chapter 7
00:26:26.585 : en:Chapter 8
00:30:37.043 : en:Chapter 9
00:32:39.832 : en:Chapter 10
00:36:24.015 : en:Chapter 11
00:41:33.491 : en:Chapter 12
00:44:24.662 : en:Chapter 13
00:47:06.031 : en:Chapter 14
00:51:34.132 : en:Chapter 15
00:56:09.783 : en:Chapter 16
00:58:46.940 : en:Chapter 17
01:01:13.086 : en:Chapter 18
01:04:29.073 : en:Chapter 19
01:10:09.496 : en:Chapter 20
01:13:15.849 : en:Chapter 21
01:15:48.168 : en:Chapter 22
01:19:24.259 : en:Chapter 23
01:23:05.647 : en:Chapter 24
01:26:41.487 : en:Chapter 25
01:30:35.930 : en:Chapter 26
01:38:13.721 : en:Chapter 27



Скачать Рим.открытый.город.Roma.città.aperta.(Роберто.Росселлини).[1945.триллер.драма.военный.BDRemux].[1080р].[MVO]x2+[Оригинал]+[Sub]x3.torrent без регистрации
Золото ЗОЛОТАЯ РАЗДАЧА! СКАЧАННОЕ НЕ ЗАСЧИТЫВАЕТСЯ! Золото
Дата: Зарегистрирован   [ Тип: внутренний ] Как тут cкачать?
MAGNET ссылка
MAGNET ссылка


Скачать .torrent

33 KB

Статус: проверено DHT
Скачан: торрент - 23 раз, раздача полностью - 0 раз
Размер: 26,01 GB
Оценка:  - (Голосов: 0)
Поблагодарили: 0
Поделиться ссылкой на эту раздачу с друзьями:
В контактеFacebookОдноклассникиTwitterLivejournalМой МирLiveinternet
 

 
Показать сообщения:    


Вы не можете начинать темы
Вы не можете отвечать на сообщения
Вы не можете редактировать свои сообщения
Вы не можете удалять свои сообщения
Вы не можете голосовать в опросах
Вы не можете прикреплять файлы к сообщениям
Вы можете скачивать файлы