Loading...
Error

Скачать Школьный вальс (Павел Любимов) [1977, мелодрама, драма, молодежный фильм, WEB-DLRip] [720p] торрент без регистрации

Статистика раздачи
Размер:  3,77 GB   |    Скачан:  42 раза
Сидов:  2  [  0 KB/s  ]  
 
 
 
Автор Сообщение

Marsianka

[] 

Школьный вальс

Жанр: мелодрама, драма, молодежный фильм
Год выпуска: 1977
Продолжительность: 01:30:29

Режиссёр: Павел Любимов
В ролях: Елена Цыплакова, Евгения Симонова, Сергей Насибов, Юрий Соломин, Нина Меньшикова, Наталья Вилькина, Виктор Камаев, Екатерина Дурова, Виктор Проскурин, Елена Фетисенко и другие.

Описание: Окончена школа. Зосе и Гоше уже никто и ничто не помешает любить друг друга. Сообщив Гоше, что у них будет ребенок и поняв, что он испугался, Зося решается на трудную самостоятельную жизнь.



Качество видео: WEB-DLRip 720p
Видео: 1280х474, 25.000 fps, 5202 Kbps
Аудио: AC3, 6 ch, 448 Кбит/с, AC3, 2 ch, 192 Кбит/с
Главы: Есть

x264 [info]: frame I:714 Avg QP:18.44 size:118197
x264 [info]: frame P:32844 Avg QP:20.04 size: 64590
x264 [info]: frame B:102188 Avg QP:22.11 size: 13742
Общее
Уникальный идентификатор : 227967721526672014580487633916442709660 (0xAB80FC72A29E971F93EA47EF9D500E9C)
Полное имя : D:Школьный вальс_1977-WEB-DLRip 720p_KORSAR.mkv
Формат : Matroska
Версия формата : Version 2
Размер файла : 3,77 Гбайт
Продолжительность : 1 ч. 30 м.
Общий поток : 5961 Кбит/сек
Название фильма : Школьный вальс_1977-WEB-DLRip 720p_KORSAR
Дата кодирования : UTC 2017-10-09 13:39:09
Программа кодирования : mkvmerge v5.8.0 ('No Sleep / Pillow') built on Sep 2 2012 15:37:04
Библиотека кодирования : libebml v1.2.3 + libmatroska v1.3.0

Видео
Идентификатор : 1
Формат : AVC
Формат/Информация : Advanced Video Codec
Профиль формата : High@L4.1
Параметр CABAC формата : Да
Параметр RefFrames формата : 13 кадров
Идентификатор кодека : V_MPEG4/ISO/AVC
Продолжительность : 1 ч. 30 м.
Битрейт : 5202 Кбит/сек
Ширина : 1280 пикселей
Высота : 474 пикселя
Соотношение сторон : 2,700
Режим частоты кадров : Постоянный
Частота кадров : 25,000 кадров/сек
Цветовое пространство : YUV
Субдискретизация насыщенности : 4:2:0
Битовая глубина : 8 бит
Тип развёртки : Прогрессивная
Бит/(Пиксели*Кадры) : 0.343
Размер потока : 3,29 Гбайт (87%)
Библиотека кодирования : x264 core 148 r2744kMod b97ae06
Настройки программы : cabac=1 / ref=13 / deblock=1:-2:-1 / analyse=0x3:0x113 / me=umh / subme=10 / psy=1 / fade_compensate=0.00 / psy_rd=1.05:0.00 / mixed_ref=1 / me_range=32 / chroma_me=1 / trellis=2 / 8x8dct=1 / cqm=0 / deadzone=21,11 / fast_pskip=1 / chroma_qp_offset=-2 / threads=12 / lookahead_threads=2 / sliced_threads=0 / nr=0 / decimate=1 / interlaced=0 / bluray_compat=0 / constrained_intra=0 / bframes=9 / b_pyramid=2 / b_adapt=2 / b_bias=0 / direct=1 / weightb=1 / open_gop=0 / weightp=2 / keyint=250 / keyint_min=25 / scenecut=40 / intra_refresh=0 / rc=crf / mbtree=0 / crf=17.6000 / qcomp=0.63 / qpmin=0 / qpmax=39 / qpstep=4 / ip_ratio=1.40 / pb_ratio=1.30 / aq=1:0.80
Язык : English
Default : Да
Forced : Нет
Цветовой диапазон : Limited
Основные цвета : BT.709
Характеристики трансфера : BT.709
Коэффициенты матрицы : BT.709

Аудио #1
Идентификатор : 2
Формат : AC-3
Формат/Информация : Audio Coding 3
Параметр Endianness формата : Big
Идентификатор кодека : A_AC3
Продолжительность : 1 ч. 30 м.
Вид битрейта : Постоянный
Битрейт : 448 Кбит/сек
Каналы : 6 каналов
Расположение каналов : Front: L C R, Side: L R, LFE
Частота : 48,0 КГц
Частота кадров : 31,250 кадров/сек (1536 SPF)
Битовая глубина : 16 бит
Метод сжатия : С потерями
Размер потока : 290 Мбайт (8%)
Язык : Russian
Default : Да
Forced : Нет

Аудио #2
Идентификатор : 3
Формат : AC-3
Формат/Информация : Audio Coding 3
Параметр Endianness формата : Big
Идентификатор кодека : A_AC3
Продолжительность : 1 ч. 30 м.
Вид битрейта : Постоянный
Битрейт : 192 Кбит/сек
Каналы : 6 каналов
Расположение каналов : Front: L C R, Side: L R, LFE
Частота : 48,0 КГц
Частота кадров : 31,250 кадров/сек (1536 SPF)
Битовая глубина : 16 бит
Метод сжатия : С потерями
Размер потока : 124 Мбайт (3%)
Default : Нет
Forced : Нет

Меню
00:00:00.000 : en:Chapter 1
00:05:55.760 : en:Chapter 2
00:11:31.320 : en:Chapter 3
00:17:21.280 : en:Chapter 4
00:22:56.560 : en:Chapter 5
00:29:21.320 : en:Chapter 6
00:35:03.960 : en:Chapter 7
00:40:15.720 : en:Chapter 8
00:43:17.560 : en:Chapter 9
00:49:58.160 : en:Chapter 10
00:56:32.840 : en:Chapter 11
01:03:08.880 : en:Chapter 12
01:07:22.680 : en:Chapter 13
01:12:51.720 : en:Chapter 14
01:17:54.840 : en:Chapter 15
01:22:23.240 : en:Chapter 16



Скачать Школьный.вальс.(Павел.Любимов).[1977.мелодрама.драма.молодежный.фильм.WEB-DLRip].[720p].torrent без регистрации
Золото ЗОЛОТАЯ РАЗДАЧА! СКАЧАННОЕ НЕ ЗАСЧИТЫВАЕТСЯ! Золото
Дата: Зарегистрирован   [ Тип: внешний ] Как тут cкачать?
MAGNET ссылка
MAGNET ссылка


Скачать .torrent

20 KB

Статус: проверено DHT
Скачан: торрент - 42 раз, раздача полностью - 8 раз
Размер: 3,77 GB
Оценка:  - (Голосов: 0)
Поблагодарили: 0
Поделиться ссылкой на эту раздачу с друзьями:
В контактеFacebookОдноклассникиTwitterLivejournalМой МирLiveinternet
 

 
Показать сообщения:    


Вы не можете начинать темы
Вы не можете отвечать на сообщения
Вы не можете редактировать свои сообщения
Вы не можете удалять свои сообщения
Вы не можете голосовать в опросах
Вы не можете прикреплять файлы к сообщениям
Вы можете скачивать файлы