Loading...
Error

Скачать Виринея (Владимир Фетин) [1968, драма, DVDRip-AVC] торрент без регистрации

Статистика раздачи
Размер:  1,67 GB   |    Скачан:  21 раз
Сидов:  2  [  0 KB/s  ]  
 
 
 
Автор Сообщение

Marsianka

[] 

Виринея

Жанр: драма
Год выпуска: 1968
Продолжительность: 01:42:41

Режиссёр: Владимир Фетин
В ролях: Людмила Чурсина, Вячеслав Невинный, Анатолий Папанов, Валентина Владимирова, Олег Борисов, Станислав Чекан, Евгений Леонов, Вячеслав Шалевич, Алексей Грибов, Вячеслав Сирин, Надежда Федосова, Владимир Дорофеев, Михаил Ладыгин, Сергей Полежаев, Аркадий Трусов, Ирина Губанова, Виталий Матвеев

Описание: Действие фильма разворачивается в годы гражданской войны и становления Советской власти в Сибири. Героиня фильма - деревенская женщина Виринея, одна из первых, кто помогал обустраивать новую жизнь.



Кодек: х264
Качество: DVDRip-AVC
Видео: MPEG-4 AVC, 686x570@732x570, 25 fps, 2085 Кбит/с
Звук: AC3, 2 ch, 192 Кбит/с
Главы: Есть

x264 [info]: frame I:764 Avg QP:17.59 size: 56567
x264 [info]: frame P:33253 Avg QP:18.97 size: 28138
x264 [info]: frame B:120011 Avg QP:21.39 size: 5506
x264 [info]: consecutive B-frames: 1.2% 2.7% 10.6% 14.0% 21.9% 44.1% 4.1% 0.7% 0.4% 0.2%

Общее
Уникальный идентификатор : 229129019532443423853165044501038255999 (0xAC60A4DC2C1931B19332312D7E184F7F)
Полное имя : D:Виринея_1968-DVDRip-AVC.mkv
Формат : Matroska
Версия формата : Version 2
Размер файла : 1,67 Гбайт
Продолжительность : 1 ч. 42 м.
Общий поток : 2323 Кбит/сек
Дата кодирования : UTC 2017-08-21 16:40:29
Программа кодирования : mkvmerge v5.8.0 ('No Sleep / Pillow') built on Sep 2 2012 15:37:04
Библиотека кодирования : libebml v1.2.3 + libmatroska v1.3.0

Видео
Идентификатор : 1
Формат : AVC
Формат/Информация : Advanced Video Codec
Профиль формата : High@L4.1
Параметр CABAC формата : Да
Параметр RefFrames формата : 15 кадров
Идентификатор кодека : V_MPEG4/ISO/AVC
Продолжительность : 1 ч. 42 м.
Битрейт : 2085 Кбит/сек
Ширина : 686 пикселей
Высота : 570 пикселей
Соотношение сторон : 1,284
Режим частоты кадров : Постоянный
Частота кадров : 25,000 кадров/сек
Цветовое пространство : YUV
Субдискретизация насыщенности : 4:2:0
Битовая глубина : 8 бит
Тип развёртки : Прогрессивная
Бит/(Пиксели*Кадры) : 0.213
Размер потока : 1,50 Гбайт (90%)
Заголовок : korsar.tv
Библиотека кодирования : x264 core 148 r2744kMod b97ae06
Настройки программы : cabac=1 / ref=15 / deblock=1:-2:-2 / analyse=0x3:0x133 / me=umh / subme=10 / psy=1 / fade_compensate=0.00 / psy_rd=1.05:0.10 / mixed_ref=1 / me_range=32 / chroma_me=1 / trellis=2 / 8x8dct=1 / cqm=0 / deadzone=21,11 / fast_pskip=1 / chroma_qp_offset=-3 / threads=12 / lookahead_threads=2 / sliced_threads=0 / nr=0 / decimate=1 / interlaced=0 / bluray_compat=0 / constrained_intra=0 / bframes=9 / b_pyramid=2 / b_adapt=2 / b_bias=0 / direct=1 / weightb=1 / open_gop=0 / weightp=2 / keyint=250 / keyint_min=25 / scenecut=40 / intra_refresh=0 / rc=crf / mbtree=0 / crf=17.9000 / qcomp=0.63 / qpmin=0 / qpmax=39 / qpstep=4 / ip_ratio=1.40 / pb_ratio=1.30 / aq=1:1.00
Язык : English
Default : Да
Forced : Нет
Цветовой диапазон : Limited
Основные цвета : BT.601 PAL
Характеристики трансфера : BT.470 System B, BT.470 System G
Коэффициенты матрицы : BT.601

Аудио
Идентификатор : 2
Формат : AC-3
Формат/Информация : Audio Coding 3
Параметр Endianness формата : Big
Идентификатор кодека : A_AC3
Продолжительность : 1 ч. 42 м.
Вид битрейта : Постоянный
Битрейт : 192 Кбит/сек
Каналы : 2 канала
Расположение каналов : Front: L R
Частота : 48,0 КГц
Частота кадров : 31,250 кадров/сек (1536 SPF)
Битовая глубина : 16 бит
Метод сжатия : С потерями
Размер потока : 141 Мбайт (8%)
Язык : Russian
Default : Да
Forced : Нет

Меню
00:00:00.000 : en:Chapter 1
00:09:29.600 : en:Chapter 2
00:16:39.240 : en:Chapter 3
00:30:46.040 : en:Chapter 4
00:39:24.640 : en:Chapter 5
00:49:06.080 : en:Chapter 6
00:58:38.480 : en:Chapter 7
01:07:16.480 : en:Chapter 8
01:12:41.840 : en:Chapter 9
01:26:10.160 : en:Chapter 10
01:33:59.360 : en:Chapter 11
01:37:13.360 : en:Chapter 12



Скачать Виринея.(Владимир.Фетин).[1968.драма.DVDRip-AVC].torrent без регистрации
Золото ЗОЛОТАЯ РАЗДАЧА! СКАЧАННОЕ НЕ ЗАСЧИТЫВАЕТСЯ! Золото
Дата: Зарегистрирован   [ Тип: внешний ] Как тут cкачать?
MAGNET ссылка
MAGNET ссылка


Скачать .torrent

18 KB

Статус: проверено DHT
Скачан: торрент - 21 раз, раздача полностью - 0 раз
Размер: 1,67 GB
Оценка:  - (Голосов: 0)
Поблагодарили: 0
Поделиться ссылкой на эту раздачу с друзьями:
В контактеFacebookОдноклассникиTwitterLivejournalМой МирLiveinternet
 

 
Показать сообщения:    


Вы не можете начинать темы
Вы не можете отвечать на сообщения
Вы не можете редактировать свои сообщения
Вы не можете удалять свои сообщения
Вы не можете голосовать в опросах
Вы не можете прикреплять файлы к сообщениям
Вы можете скачивать файлы