Loading...
Error

Скачать Комиссар (Александр Аскольдов) [1967, драма, военный, DVDRip-AVC] торрент без регистрации

Статистика раздачи
Размер:  2,4 GB   |    Скачан:  32 раза
Сидов:  2  [  0 KB/s  ]   Личеров:  2  [  0 KB/s  ]  
 
 
 
Автор Сообщение

Marsianka

[] 

Комиссар

Страна: СССР
Производство: Киностудия им. М. Горького, Мосфильм

Жанр: драма, военный
Год выпуска: 1967
Продолжительность: 01:43:57

Перевод: Не требуется
Оригинальная аудиодорожка: русский

Режиссер: Александр Аскольдов

В ролях: Нонна Мордюкова, Ролан Быков, Раиса Недашковская, Людмила Волынская, Василий Шукшин, Люба Кац, Павлик Левин, Дима Клейман, Марта Браткова, Игорь Фишман, Отар Коберидзе, Леонид Реутов, Виктор Шахов, Валерий Рыжаков...

Описание: Фильм сделан в 1967 году по мотивам одного из ранних рассказов В. Гроссмана "В городе Бердычеве", который Максим Горький считал одним из самых лучших рассказов о гражданской войне.
Гражданская война. Красные части занимают маленький южный городок. В перерыве между боями комиссару Вавиловой надо было родить. Для этого она поселилась в многодетной еврейской семье мелкого ремесленника...
Единственный советский фильм,который был в широком прокате в США - прошел в 126 городах Америки.



Кодек: х264
Качество: DVDRip-AVC
Видео: MPEG-4 AVC, 708x428@1008x428, 25 fps, 3113 Кбит/с
Звук: AC3, 2 ch, 192 Кбит/с
Главы: Есть

x264 [info]: frame I:764 Avg QP:18.16 size: 66205
x264 [info]: frame P:40831 Avg QP:20.49 size: 32853
x264 [info]: frame B:114320 Avg QP:22.17 size: 9053

Общее
Уникальный идентификатор : 227552422451200503775853747845632414816 (0xAB31009F5C855C25860336A496C8D460)
Полное имя : D:Комиссар_1967-DVDRip-AVC.mkv
Формат : Matroska
Версия формата : Version 2
Размер файла : 2,40 Гбайт
Продолжительность : 1 ч. 43 м.
Общий поток : 3307 Кбит/сек
Дата кодирования : UTC 2017-06-26 15:25:20
Программа кодирования : mkvmerge v5.8.0 ('No Sleep / Pillow') built on Sep 2 2012 15:37:04
Библиотека кодирования : libebml v1.2.3 + libmatroska v1.3.0

Видео
Идентификатор : 1
Формат : AVC
Формат/Информация : Advanced Video Codec
Профиль формата : High@L4.1
Параметр CABAC формата : Да
Параметр ReFrames формата : 15 кадров
Идентификатор кодека : V_MPEG4/ISO/AVC
Продолжительность : 1 ч. 43 м.
Битрейт : 3113 Кбит/сек
Ширина : 708 пикселей
Высота : 428 пикселей
Соотношение сторон : 2,35:1
Соотношение сторон в оригинале : 2,35:1
Режим частоты кадров : Постоянный
Частота кадров : 25,000 кадров/сек
Цветовое пространство : YUV
Субдискретизация насыщенности : 4:2:0
Битовая глубина : 8 бит
Тип развёртки : Прогрессивная
Бит/(Пиксели*Кадры) : 0.411
Размер потока : 2,21 Гбайт (92%)
Заголовок : korsar.tv
Библиотека кодирования : x264 core 148 r2744kMod b97ae06
Настройки программы : cabac=1 / ref=15 / deblock=1:-2:-1 / analyse=0x3:0x133 / me=umh / subme=10 / psy=1 / fade_compensate=0.00 / psy_rd=1.05:0.10 / mixed_ref=1 / me_range=40 / chroma_me=1 / trellis=2 / 8x8dct=1 / cqm=0 / deadzone=21,11 / fast_pskip=0 / chroma_qp_offset=-3 / threads=12 / lookahead_threads=3 / sliced_threads=0 / nr=0 / decimate=0 / interlaced=0 / bluray_compat=0 / constrained_intra=0 / bframes=10 / b_pyramid=2 / b_adapt=2 / b_bias=0 / direct=3 / weightb=1 / open_gop=0 / weightp=2 / keyint=250 / keyint_min=25 / scenecut=40 / intra_refresh=0 / rc=2pass / mbtree=0 / bitrate=3113 / ratetol=1.0 / qcomp=0.63 / qpmin=0 / qpmax=39 / qpstep=4 / cplxblur=20.0 / qblur=0.5 / ip_ratio=1.25 / pb_ratio=1.30 / aq=1:1.00
Язык : English
Default : Да
Forced : Нет
Цветовой диапазон : Limited
Основные цвета : BT.601 PAL
Характеристики трансфера : BT.470 System B, BT.470 System G
Коэффициенты матрицы : BT.601

Аудио
Идентификатор : 2
Формат : AC-3
Формат/Информация : Audio Coding 3
Параметр Endianness формата : Big
Идентификатор кодека : A_AC3
Продолжительность : 1 ч. 43 м.
Вид битрейта : Постоянный
Битрейт : 192 Кбит/сек
Каналы : 2 канала
Расположение каналов : Front: L R
Частота : 48,0 КГц
Частота кадров : 31,250 кадров/сек (1536 spf)
Битовая глубина : 16 бит
Метод сжатия : С потерями
Задержка видео : 120 мс.
Размер потока : 143 Мбайт (6%)
Язык : Russian
Default : Да
Forced : Нет

Меню
00:00:00.000 : en:Chapter 1
00:05:41.920 : en:Chapter 2
00:12:35.800 : en:Chapter 3
00:20:59.800 : en:Chapter 4
00:21:38.200 : en:Chapter 5
00:24:22.480 : en:Chapter 6
00:30:03.280 : en:Chapter 7
00:31:40.840 : en:Chapter 8
00:36:20.440 : en:Chapter 9
00:39:34.120 : en:Chapter 10
00:44:22.120 : en:Chapter 11
00:57:10.360 : en:Chapter 12
01:03:23.680 : en:Chapter 13
01:08:48.280 : en:Chapter 14
01:13:51.880 : en:Chapter 15
01:19:05.560 : en:Chapter 16
01:21:55.360 : en:Chapter 17
01:27:35.440 : en:Chapter 18
01:31:19.240 : en:Chapter 19
01:37:13.120 : en:Chapter 20
01:43:56.120 : en:Chapter 21



Скачать Комиссар.(Александр.Аскольдов).[1967.драма.военный.DVDRip-AVC].torrent без регистрации
Золото ЗОЛОТАЯ РАЗДАЧА! СКАЧАННОЕ НЕ ЗАСЧИТЫВАЕТСЯ! Золото
Дата: Зарегистрирован   [ Тип: внешний ] Как тут cкачать?
MAGNET ссылка
MAGNET ссылка


Скачать .torrent

13 KB

Статус: проверено DHT
Скачан: торрент - 32 раз, раздача полностью - 4 раз
Размер: 2,4 GB
Оценка:  - (Голосов: 0)
Поблагодарили: 0
Поделиться ссылкой на эту раздачу с друзьями:
В контактеFacebookОдноклассникиTwitterLivejournalМой МирLiveinternet
 

 
Показать сообщения:    


Вы не можете начинать темы
Вы не можете отвечать на сообщения
Вы не можете редактировать свои сообщения
Вы не можете удалять свои сообщения
Вы не можете голосовать в опросах
Вы не можете прикреплять файлы к сообщениям
Вы можете скачивать файлы