Loading...
Error

Скачать День независимости: Возрождение / Independence Day: Resurgence (Роланд Эммерих) [2016, фантастика, боевик, приключения, BDRemux] [2160p (4K HDR)] [Dub (лицензия)]+2x[AVO]+[Sub Rus, Eng] торрент без регистрации

Статистика раздачи
Размер:  36,49 GB   |    Скачан:  60 раз

Полного источника не было: 24 минуты

 
 
 
Автор Сообщение

МихаНЕзатор

[] 

Информация о фильме
Название: День независимости: Возрождение
Оригинальное название: Independence Day: Resurgence
Год выхода: 2016
Жанр: Фантастика, боевик, приключения
Режиссер: Роланд Эммерих

В ролях: Лиам Хемсворт, Джефф Голдблюм, Джесси Ашер, Билл Пуллман, Майка Монро, Села Уорд, Уильям Фихтнер, Джадд Хёрш, Брент Спайнер, Патрик Ст. Эсприт, Вивика А. Фокс, Анджела Бейби

О фильме: Два десятилетия прошло с момента нашествия инопланетян на Землю. Благодаря технологиям пришельцев человечество в своем развитии шагнуло далеко вперед. Но никакое совершенное оружие не способно остановить второе вторжение беспощадных монстров из космоса. Судьба цивилизации в руках горстки отважных героев – смогут ли они спасти нашу планету от истребления?



Страна: США
Студия: 20th Century Fox Film Corporation
Продолжительность: 01:59:44
Перевод:
#1: Дублированный | Лицензия Blu-Ray EUR
#2: Авторский | Живов
#3: Авторский | Гаврилов

Файл
Качество: BDRemux 2160p
Видео: MPEG-H HEVC HDR Video, 3840x2160, 34.2 Mbit/s, 23.976 fps
Звук:
Аудио #01: 48 kHz, DTS, 5.1, 768 Kbps | Дублированный | RUS |
Аудио #02: 48 kHz, AC3, 5.1, 448 Kbps | Дублированный | RUS |
Аудио #03: 48 kHz, DTS, 5.1, 1510 Kbps | Авторский | RUS |
Аудио #04: 48 kHz, AC3, 5.1, 384 Kbps | Авторский | RUS |
Аудио #05: 48 kHz, TrueHD, 7.1, 5559 Kbps | Оригинал | ENG |
Аудио #06: 48 kHz, AC3, 5.1, 640 Kbps | Оригинал | ENG |
Субтитры: Русские (forced, full), английские

АНОНСЫ ПОПУЛЯРНЫХ РАЗДАЧ
General
Unique ID : 281124315332872464598845050865627584183 (0xD37E92DDF853F497EC8AC0A3847656B7)
Complete name : G:VideoSSDIndependence.Day.Resurgence.2016.BDREMUX.2160p.4K.UltraHD.HEVC.HDR.ExKinoRay.mkv
Format : Matroska
Format version : Version 4 / Version 2
File size : 36.5 GiB
Duration : 1 h 59 min
Overall bit rate mode : Variable
Overall bit rate : 43.6 Mb/s
Movie name : Independence Day: Resurgence 2016 from ExKinoRay
Encoded date : UTC 2017-12-19 07:10:20
Writing application : mkvmerge v19.0.0 ('Brave Captain') 64-bit
Writing library : libebml v1.3.5 + libmatroska v1.4.8

Video
ID : 1
Format : HEVC
Format/Info : High Efficiency Video Coding
Format profile : Main 10@L5.1@High
Codec ID : V_MPEGH/ISO/HEVC
Duration : 1 h 59 min
Bit rate : 34.2 Mb/s
Width : 3 840 pixels
Height : 2 160 pixels
Display aspect ratio : 16:9
Frame rate mode : Constant
Frame rate : 23.976 (24000/1001) FPS
Color space : YUV
Chroma subsampling : 4:2:0 (Type 2)
Bit depth : 10 bits
Bits/(Pixel*Frame) : 0.172
Stream size : 28.6 GiB (78%)
Language : English
Default : Yes
Forced : No
Color range : Limited
Color primaries : BT.2020
Transfer characteristics : PQ
Matrix coefficients : BT.2020 non-constant
Mastering display color pri : R: x=0.680000 y=0.320000, G: x=0.265000 y=0.690000, B: x=0.150000 y=0.060000, White point: x=0.312700 y=0.329000
Mastering display luminance : min: 0.0000 cd/m2, max: 1000.0000 cd/m2

Audio #1
ID : 2
Format : DTS
Format/Info : Digital Theater Systems
Codec ID : A_DTS
Duration : 1 h 59 min
Bit rate mode : Constant
Bit rate : 768 kb/s
Channel(s) : 6 channels
Channel positions : Front: L C R, Side: L R, LFE
Sampling rate : 48.0 kHz
Frame rate : 93.750 FPS (512 SPF)
Bit depth : 24 bits
Compression mode : Lossy
Stream size : 658 MiB (2%)
Title : Dub [License]
Language : Russian
Default : Yes
Forced : No

Audio #2
ID : 3
Format : AC-3
Format/Info : Audio Coding 3
Codec ID : A_AC3
Duration : 1 h 59 min
Bit rate mode : Constant
Bit rate : 448 kb/s
Channel(s) : 6 channels
Channel positions : Front: L C R, Side: L R, LFE
Sampling rate : 48.0 kHz
Frame rate : 31.250 FPS (1536 SPF)
Bit depth : 16 bits
Compression mode : Lossy
Stream size : 384 MiB (1%)
Title : Dub [License]
Language : Russian
Service kind : Complete Main
Default : No
Forced : No

Audio #3
ID : 4
Format : DTS
Format/Info : Digital Theater Systems
Codec ID : A_DTS
Duration : 1 h 59 min
Bit rate mode : Constant
Bit rate : 1 509 kb/s
Channel(s) : 6 channels
Channel positions : Front: L C R, Side: L R, LFE
Sampling rate : 48.0 kHz
Frame rate : 93.750 FPS (512 SPF)
Bit depth : 24 bits
Compression mode : Lossy
Stream size : 1.26 GiB (3%)
Title : AVO [Givov]
Language : Russian
Default : No
Forced : No

Audio #4
ID : 5
Format : AC-3
Format/Info : Audio Coding 3
Codec ID : A_AC3
Duration : 1 h 59 min
Bit rate mode : Constant
Bit rate : 384 kb/s
Channel(s) : 6 channels
Channel positions : Front: L C R, Side: L R, LFE
Sampling rate : 48.0 kHz
Frame rate : 31.250 FPS (1536 SPF)
Bit depth : 16 bits
Compression mode : Lossy
Stream size : 329 MiB (1%)
Title : AVO [Gavrilov]
Language : Russian
Service kind : Complete Main
Default : No
Forced : No

Audio #5
ID : 6
Format : TrueHD
Format profile : TrueHD+Atmos / TrueHD
Codec ID : A_TRUEHD
Duration : 1 h 59 min
Bit rate mode : Variable
Bit rate : 5 559 kb/s
Maximum bit rate : 8 922 kb/s
Channel(s) : Object Based / 8 channels
Channel positions : Object Based / Front: L C R, Side: L R, Back: L R, LFE
Sampling rate : / 48.0 kHz
Frame rate : 1 200.000 FPS (40 SPF)
Compression mode : Lossless
Stream size : 4.65 GiB (13%)
Title : Original
Language : English
Default : No
Forced : No

Audio #6
ID : 7
Format : AC-3
Format/Info : Audio Coding 3
Codec ID : A_AC3
Duration : 1 h 59 min
Bit rate mode : Constant
Bit rate : 640 kb/s
Channel(s) : 6 channels
Channel positions : Front: L C R, Side: L R, LFE
Sampling rate : 48.0 kHz
Frame rate : 31.250 FPS (1536 SPF)
Bit depth : 16 bits
Compression mode : Lossy
Stream size : 548 MiB (1%)
Title : Dop.
Language : English
Service kind : Complete Main
Default : No
Forced : No

Text #1
ID : 8
Format : UTF-8
Codec ID : S_TEXT/UTF8
Codec ID/Info : UTF-8 Plain Text
Duration : 1 h 57 min
Bit rate : 1 b/s
Count of elements : 15
Stream size : 1.02 KiB (0%)
Title : Forced
Language : Russian
Default : Yes
Forced : No

Text #2
ID : 9
Format : UTF-8
Codec ID : S_TEXT/UTF8
Codec ID/Info : UTF-8 Plain Text
Duration : 1 h 58 min
Bit rate : 94 b/s
Count of elements : 1736
Stream size : 82.0 KiB (0%)
Title : Full iTunes
Language : Russian
Default : No
Forced : No

Text #3
ID : 10
Format : UTF-8
Codec ID : S_TEXT/UTF8
Codec ID/Info : UTF-8 Plain Text
Duration : 7 s 464 ms
Bit rate : 114 b/s
Count of elements : 3
Stream size : 107 Bytes (0%)
Title : Forced
Language : English
Default : No
Forced : No

Text #4
ID : 11
Format : UTF-8
Codec ID : S_TEXT/UTF8
Codec ID/Info : UTF-8 Plain Text
Duration : 1 h 49 min
Bit rate : 62 b/s
Count of elements : 1711
Stream size : 50.3 KiB (0%)
Title : Full
Language : English
Default : No
Forced : No

Text #5
ID : 12
Format : UTF-8
Codec ID : S_TEXT/UTF8
Codec ID/Info : UTF-8 Plain Text
Duration : 1 h 49 min
Bit rate : 74 b/s
Count of elements : 2158
Stream size : 59.7 KiB (0%)
Title : SDH
Language : English
Default : No
Forced : No

Menu
00:00:00.000 : en:1
00:05:37.336 : en:2
00:09:15.471 : en:3
00:14:06.720 : en:4
00:19:40.470 : en:5
00:22:59.001 : en:6
00:27:10.252 : en:7
00:31:37.644 : en:8
00:39:11.974 : en:9
00:43:41.117 : en:10
00:47:46.612 : en:11
00:52:32.190 : en:12
00:59:10.255 : en:13
01:02:00.132 : en:14
01:07:12.068 : en:15
01:09:54.814 : en:16
01:13:11.720 : en:17
01:18:27.452 : en:18
01:22:45.502 : en:19
01:27:51.807 : en:20
01:32:36.716 : en:21
01:39:38.137 : en:22
01:47:20.141 : en:23
01:50:36.712 : en:24



Скачать День.независимости.Возрождение.Independence.Day.Resurgence.(Роланд.Эммерих).[2016.фантастика.боевик.приключения.BDRemux].[2160p.(4K.HDR)].[Dub.(лицензия)]+2x[AVO]+[Sub.Rus.Eng].torrent без регистрации
Золото ЗОЛОТАЯ РАЗДАЧА! СКАЧАННОЕ НЕ ЗАСЧИТЫВАЕТСЯ! Золото
Дата: Зарегистрирован   [ Тип: внутренний ] Как тут cкачать?
MAGNET ссылка
MAGNET ссылка


Скачать .torrent

183 KB

Статус: проверено DHT
Скачан: торрент - 60 раз, раздача полностью - 18 раз
Размер: 36,49 GB
Оценка:  - (Голосов: 0)
Поблагодарили: 2
Поделиться ссылкой на эту раздачу с друзьями:
В контактеFacebookОдноклассникиTwitterLivejournalМой МирLiveinternet
 

 
Показать сообщения:    


Вы не можете начинать темы
Вы не можете отвечать на сообщения
Вы не можете редактировать свои сообщения
Вы не можете удалять свои сообщения
Вы не можете голосовать в опросах
Вы не можете прикреплять файлы к сообщениям
Вы можете скачивать файлы