Loading...
Error

Скачать Робин Гуд: Принц воров / Robin Hood: Prince of Thieves (Кевин Рейнольдс) [1991, боевик, мелодрама, драма, приключения, BDRip-HEVC] [1080p] [Extended version] [MVO]+[Eng]+[Sub Rus, Eng]x2 торрент без регистрации

Статистика раздачи
Размер:  9,1 GB   |    Скачан:  33 раза
Сидов:  1  [  0 KB/s  ]  
 
 
 
Автор Сообщение

Marsianka

[] 

Информация о фильме
Название: Робин Гуд: Принц воров
Оригинальное название: Robin Hood: Prince of Thieves
Год выхода: 1991
Жанр: боевик, мелодрама, драма, приключения
Режиссер: Кевин Рейнольдс
В ролях: Кевин Костнер, Морган Фриман, Мэри Элизабет Мастрантонио, Кристиан Слэйтер, Алан Рикман, Майкл МакШейн, Брайан Блессид, Майкл Уинкотт, Ник Бримбл, Су Друэ

О фильме:
Немногие вернулись из Крестового похода. Робину из Локсли, чтобы избежать гибели в арабском плену, пришлось воспользоваться помощью одного из узников-мусульман: религиозных врагов сплотило общее несчастье. Но самые большие угрозы ожидают героя со стороны единоверцев: английский трон захвачен самозванцем! Только зеленый лес, только потерявшие все, и готовые на все друзья, только вера в свою правоту помогут Робину выстоять в неравной борьбе. А его врагов заставят содрогаться от зловещего свиста летящих ниоткуда метких стрел.



Страна: США
Продолжительность: 02:35:03
Перевод: Профессиональный многоголосый

Файл
Кодек: HEVC x265 10bit
Качество: BDRip-HEVC 1080p
Видео: 1920x1080, 23.976 кадр/сек, 7 630 Кбит/сек, (Main 10@L4.1@High) 10bit

Аудио1: Русская, AC3 384 Кбит/сек, 6 канала(ов),16bit 48,0 КГц (Киномания)
Аудио2: English, AC3 384 Кбит/сек, 6 канала(ов),16bit 48,0 КГц
Субтитры: Русские, English
Навигация по главам: Есть
General
Unique ID : 206247885180124632394290847938162982608 (0x9B29E5D6732603159C303BE83CC3FED0)
Complete name : S:HEVCRobin Hood. Prince of Thieves [Extended version] (1991) BDRip 1080p [HEVC] 10Bit.mkv
Format : Matroska
Format version : Version 4 / Version 2
File size : 9.10 GiB
Duration : 2 h 35 min
Overall bit rate : 8 400 kb/s
Movie name : rip_by_Cthulhu
Encoded date : UTC 2017-12-17 12:07:07
Writing application : mkvmerge v18.0.0 ('Apricity') 64-bit
Writing library : libebml v1.3.5 + libmatroska v1.4.8
Cover : Yes
Attachments : cover.jpg

Video
ID : 1
Format : HEVC
Format/Info : High Efficiency Video Coding
Format profile : Main 10@L4.1@High
Codec ID : V_MPEGH/ISO/HEVC
Duration : 2 h 35 min
Bit rate : 7 630 kb/s
Width : 1 920 pixels
Height : 1 080 pixels
Display aspect ratio : 16:9
Frame rate mode : Constant
Frame rate : 23.976 (24000/1001) FPS
Color space : YUV
Chroma subsampling : 4:2:0
Bit depth : 10 bits
Bits/(Pixel*Frame) : 0.153
Stream size : 8.26 GiB (91%)
Writing library : x265 2.6+8-fc0570b8d8f9:[Windows][GCC 7.1.0][64 bit] 10bit
Encoding settings : cpuid=1050111 / frame-threads=5 / numa-pools=4 / wpp / no-pmode / no-pme / no-psnr / no-ssim / log-level=3 / input-csp=1 / input-res=1920x1080 / interlace=0 / total-frames=0 / level-idc=41 / high-tier=1 / uhd-bd=0 / ref=5 / no-allow-non-conformance / no-repeat-headers / annexb / no-aud / no-hrd / info / hash=0 / no-temporal-layers / open-gop / min-keyint=24 / keyint=240 / gop-lookahead=0 / bframes=8 / b-adapt=2 / b-pyramid / bframe-bias=0 / rc-lookahead=40 / lookahead-slices=6 / scenecut=40 / no-intra-refresh / ctu=64 / min-cu-size=8 / no-rect / no-amp / max-tu-size=32 / tu-inter-depth=2 / tu-intra-depth=2 / limit-tu=0 / rdoq-level=0 / dynamic-rd=0.00 / no-ssim-rd / signhide / no-tskip / nr-intra=0 / nr-inter=0 / no-constrained-intra / strong-intra-smoothing / max-merge=3 / limit-refs=3 / no-limit-modes / me=3 / subme=7 / merange=64 / temporal-mvp / weightp / weightb / no-analyze-src-pics / deblock=-3:-3 / no-sao / no-sao-non-deblock / rd=3 / no-early-skip / rskip / no-fast-intra / no-tskip-fast / no-cu-lossless / no-b-intra / no-splitrd-skip / rdpenalty=0 / psy-rd=1.00 / psy-rdoq=0.00 / no-rd-refine / analysis-reuse-mode=0 / no-lossless / cbqpoffs=0 / crqpoffs=0 / rc=crf / crf=20.5 / qcomp=0.60 / qpstep=4 / stats-write=0 / stats-read=0 / vbv-maxrate=50000 / vbv-bufsize=50000 / vbv-init=0.9 / crf-max=30.0 / crf-min=0.0 / ipratio=1.40 / pbratio=1.30 / aq-mode=1 / aq-strength=0.90 / cutree / zone-count=0 / no-strict-cbr / qg-size=32 / no-rc-grain / qpmax=69 / qpmin=0 / no-const-vbv / sar=1 / overscan=0 / videoformat=5 / range=0 / colorprim=1 / transfer=1 / colormatrix=1 / chromaloc=0 / display-window=0 / max-cll=0,0 / min-luma=0 / max-luma=1023 / log2-max-poc-lsb=8 / vui-timing-info / vui-hrd-info / slices=1 / no-opt-qp-pps / no-opt-ref-list-length-pps / no-multi-pass-opt-rps / scenecut-bias=0.05 / no-opt-cu-delta-qp / no-aq-motion / no-hdr / no-hdr-opt / no-dhdr10-opt / analysis-reuse-level=5 / scale-factor=0 / refine-intra=0 / refine-inter=0 / refine-mv=0 / no-limit-sao / ctu-info=0 / no-lowpass-dct / refine-mv-type=0 / copy-pic=1
Language : English
Default : Yes
Forced : No
Color range : Limited
Color primaries : BT.709
Transfer characteristics : BT.709
Matrix coefficients : BT.709

Audio #1
ID : 2
Format : AC-3
Format/Info : Audio Coding 3
Format settings, Endianness : Big
Codec ID : A_AC3
Duration : 2 h 35 min
Bit rate mode : Constant
Bit rate : 384 kb/s
Channel(s) : 6 channels
Channel positions : Front: L C R, Side: L R, LFE
Sampling rate : 48.0 kHz
Frame rate : 31.250 FPS (1536 SPF)
Bit depth : 16 bits
Compression mode : Lossy
Stream size : 426 MiB (5%)
Language : Russian
Service kind : Complete Main
Default : Yes
Forced : No

Audio #2
ID : 3
Format : AC-3
Format/Info : Audio Coding 3
Format settings, Endianness : Big
Codec ID : A_AC3
Duration : 2 h 35 min
Bit rate mode : Constant
Bit rate : 384 kb/s
Channel(s) : 6 channels
Channel positions : Front: L C R, Side: L R, LFE
Sampling rate : 48.0 kHz
Frame rate : 31.250 FPS (1536 SPF)
Bit depth : 16 bits
Compression mode : Lossy
Stream size : 426 MiB (5%)
Language : English
Service kind : Complete Main
Default : No
Forced : No

Text #1
ID : 4
Format : UTF-8
Codec ID : S_TEXT/UTF8
Codec ID/Info : UTF-8 Plain Text
Duration : 2 h 27 min
Bit rate : 68 b/s
Count of elements : 1937
Stream size : 74.4 KiB (0%)
Language : Russian
Default : Yes
Forced : No

Text #2
ID : 5
Format : UTF-8
Codec ID : S_TEXT/UTF8
Codec ID/Info : UTF-8 Plain Text
Duration : 2 h 32 min
Bit rate : 44 b/s
Count of elements : 1539
Stream size : 49.5 KiB (0%)
Language : English
Default : No
Forced : No

Menu
00:00:00.000 : en:Chapter 1
00:02:19.681 : en:Chapter 2
00:05:57.774 : en:Chapter 3
00:08:16.954 : en:Chapter 4
00:10:59.659 : en:Chapter 5
00:15:35.559 : en:Chapter 6
00:20:08.290 : en:Chapter 7
00:23:47.134 : en:Chapter 8
00:27:07.417 : en:Chapter 9
00:31:15.748 : en:Chapter 10
00:34:46.084 : en:Chapter 11
00:37:32.041 : en:Chapter 12
00:41:24.732 : en:Chapter 13
00:44:35.506 : en:Chapter 14
00:47:40.566 : en:Chapter 15
00:50:58.764 : en:Chapter 16
00:56:04.861 : en:Chapter 17
00:58:17.035 : en:Chapter 18
01:02:18.735 : en:Chapter 19
01:07:56.697 : en:Chapter 20
01:14:22.332 : en:Chapter 21
01:16:17.197 : en:Chapter 22
01:18:49.307 : en:Chapter 23
01:22:39.621 : en:Chapter 24
01:25:47.433 : en:Chapter 25
01:29:40.958 : en:Chapter 26
01:32:10.525 : en:Chapter 27
01:34:41.676 : en:Chapter 28
01:37:30.511 : en:Chapter 29
01:40:27.062 : en:Chapter 30
01:43:45.385 : en:Chapter 31
01:47:24.646 : en:Chapter 32
01:52:12.183 : en:Chapter 33
01:54:24.357 : en:Chapter 34
01:59:35.835 : en:Chapter 35
02:01:52.346 : en:Chapter 36
02:04:26.417 : en:Chapter 37
02:08:23.654 : en:Chapter 38
02:12:02.122 : en:Chapter 39
02:16:21.214 : en:Chapter 40
02:18:29.384 : en:Chapter 41
02:21:34.652 : en:Chapter 42
02:23:26.723 : en:Chapter 43
02:27:00.520 : en:Chapter 44
02:28:11.173 : en:Chapter 45
02:30:23.180 : en:Chapter 46
Релиз от: Cthulhu



Скачать Робин.Гуд.Принц.воров.Robin.Hood.Prince.of.Thieves.(Кевин.Рейнольдс).[1991.боевик.мелодрама.драма.приключения.BDRip-HEVC].[1080p].[Extended.version].[MVO]+[Eng]+[Sub.Rus.Eng]x2.torrent без регистрации
Золото ЗОЛОТАЯ РАЗДАЧА! СКАЧАННОЕ НЕ ЗАСЧИТЫВАЕТСЯ! Золото
Дата: Зарегистрирован   [ Тип: внутренний ] Как тут cкачать?
MAGNET ссылка
MAGNET ссылка


Скачать .torrent

47 KB

Статус: проверено DHT
Скачан: торрент - 33 раз, раздача полностью - 6 раз
Размер: 9,1 GB
Оценка:  - (Голосов: 0)
Поблагодарили: 2
Поделиться ссылкой на эту раздачу с друзьями:
В контактеFacebookОдноклассникиTwitterLivejournalМой МирLiveinternet
 

 
Показать сообщения:    


Вы не можете начинать темы
Вы не можете отвечать на сообщения
Вы не можете редактировать свои сообщения
Вы не можете удалять свои сообщения
Вы не можете голосовать в опросах
Вы не можете прикреплять файлы к сообщениям
Вы можете скачивать файлы