Loading...
Error

Скачать Мой кровавый Валентин / My Bloody Valentine (Патрик Люссье) [2009, ужасы, триллер, криминал, детектив, BDRip] [1080p] [3D-Video] [Dub] торрент без регистрации

Статистика раздачи
Размер:  12,08 GB   |    Скачан:  28 раз
Сидов:  1  [  0 KB/s  ]  
 
 
 
Автор Сообщение

Marsianka

[] 

Информация о фильме
Название: Мой кровавый Валентин
Оригинальное название: My Bloody Valentine
Год выхода: 2009
Жанр: ужасы, триллер, криминал, детектив
Режиссер: Патрик Люссье
В ролях: Дженсен Эклс, Джейми Кинг, Керр Смит, Бетси Рюи, Эди Гатеги, Том Эткинс, Кевин Тай, Меган Бун, Карен Баум, Джой де ла Паз, Марк Маколэй, Тодд Фармер

О фильме:
Том возвращается в родной городок, спустя 10 лет после ужасных событий, произошедших в День святого Валентина. С приездом молодого человека жители города начинают умирать от рук неизвестного маньяка, и подозрения сразу же падают на Тома. Вместе с девушкой Сарой, в которую он когда-то был влюблен, Том обязан найти неуловимого убийцу…



Страна: Lionsgate, Paradise F.X. Corp. (США)
Продолжительность: 01:41:01
Перевод: Дублированный

Файл
Формат: MKV
Качество: BDRip 1080p | 3D-Video
Видео: MPEG4 Video (H264) 1920x2104 23.98fps 14.5 Mbps
Аудио1: Russian:DTS 48000Hz 6ch 755 Kbps
Аудио2: English:DTS 48000Hz 6ch 1510 Kbps
Format : Matroska
File size : 12.1 GiB
Duration : 1h 41mn
Overall bit rate : 17.1 Mbps
Encoded date : UTC 2010-10-08 09:23:28
Writing application : mkvmerge v2.9.7 ('Tenderness') built on Jul 1 2009 18:43:35
Writing library : libebml v0.7.7 + libmatroska v0.8.1

Video
ID : 1
Format : AVC
Format/Info : Advanced Video Codec
Format profile : High@L5.0
Format settings, CABAC : Yes
Format settings, ReFrames : 4 frames
Muxing mode : Container profile=Unknown@5.0
Codec ID : V_MPEG4/ISO/AVC
Duration : 1h 41mn
Bit rate : 14.5 Mbps
Width : 1 920 pixels
Height : 2 104 pixels
Display aspect ratio : 0.913
Frame rate : 23.976 fps
Original frame rate : 25.000 fps
Color space : YUV
Chroma subsampling : 4:2:0
Bit depth : 8 bits
Scan type : Progressive
Bits/(Pixel*Frame) : 0.150
Stream size : 10.2 GiB (85%)
Writing library : x264 core 105 r1724 b02df7b
Encoding settings : cabac=1 / ref=4 / deblock=1:-2:-2 / analyse=0x3:0x113 / me=umh / subme=7 / psy=1 / psy_rd=1.00:0.15 / mixed_ref=1 / me_range=16 / chroma_me=1 / trellis=2 / 8x8dct=1 / cqm=0 / deadzone=21,11 / fast_pskip=1 / chroma_qp_offset=-3 / threads=6 / sliced_threads=0 / nr=0 / decimate=1 / interlaced=0 / constrained_intra=0 / bframes=6 / b_pyramid=0 / b_adapt=2 / b_bias=0 / direct=3 / weightb=1 / open_gop=0 / weightp=2 / keyint=250 / keyint_min=25 / scenecut=40 / intra_refresh=0 / rc_lookahead=40 / rc=crf / mbtree=1 / crf=18.0 / qcomp=0.60 / qpmin=10 / qpmax=51 / qpstep=4 / ip_ratio=1.40 / aq=1:1.00
Language : English

Audio #1
ID : 2
Format : DTS
Format/Info : Digital Theater Systems
Codec ID : A_DTS
Duration : 1h 41mn
Bit rate mode : Constant
Bit rate : 755 Kbps
Channel(s) : 6 channels
Channel positions : Front: L C R, Side: L R, LFE
Sampling rate : 48.0 KHz
Bit depth : 24 bits
Stream size : 545 MiB (4%)
Language : Russian

Audio #2
ID : 3
Format : DTS
Format/Info : Digital Theater Systems
Codec ID : A_DTS
Duration : 1h 41mn
Bit rate mode : Constant
Bit rate : 1 510 Kbps
Channel(s) : 6 channels
Channel positions : Front: L C R, Side: L R, LFE
Sampling rate : 48.0 KHz
Bit depth : 24 bits
Stream size : 1.07 GiB (9%)
Language : English



Скачать Мой.кровавый.Валентин.My.Bloody.Valentine.(Патрик.Люссье).[2009.ужасы.триллер.криминал.детектив.BDRip].[1080p].[3D-Video].[Dub].torrent без регистрации
Золото ЗОЛОТАЯ РАЗДАЧА! СКАЧАННОЕ НЕ ЗАСЧИТЫВАЕТСЯ! Золото
Дата: Зарегистрирован   [ Тип: внутренний ] Как тут cкачать?
MAGNET ссылка
MAGNET ссылка


Скачать .torrent

61 KB

Статус: проверено DHT
Скачан: торрент - 28 раз, раздача полностью - 0 раз
Размер: 12,08 GB
Оценка:  - (Голосов: 0)
Поблагодарили: 0
Поделиться ссылкой на эту раздачу с друзьями:
В контактеFacebookОдноклассникиTwitterLivejournalМой МирLiveinternet
 

 
Показать сообщения:    


Вы не можете начинать темы
Вы не можете отвечать на сообщения
Вы не можете редактировать свои сообщения
Вы не можете удалять свои сообщения
Вы не можете голосовать в опросах
Вы не можете прикреплять файлы к сообщениям
Вы можете скачивать файлы