Loading...
Error

Скачать Голливудские шлюхи с бензопилами / Hollywood Chainsaw Hookers (Фред Олен Рэй) [1988, ужасы, комедия, BDRip] [720p] [AVO]+[VO]+[Оригинал Eng]+[Commentary Eng] торрент без регистрации

Статистика раздачи
Размер:  3,89 GB   |    Скачан:  27 раз
Сидов:  1  [  0 KB/s  ]  
 
 
 
Автор Сообщение

Marsianka

[] 

Информация о фильме
Название: Голливудские шлюхи с бензопилами
Оригинальное название: Hollywood Chainsaw Hookers
Год выхода: 1988
Жанр: ужасы, комедия
Режиссер: Фред Олен Рэй
В ролях: Гуннар Хансен, Линни Куигли, Джей Ричардсон, Доун Уайлдсмит, Мишель Бауэр, Эстер Элиз, Тришиа Барнс, Фокс Харрис, Джимми Уильямс, Майкл Сони

Описаник: Ведя поиски пропавшей девушки, частный детектив выходит на след тайной религиозной секты, состоящей из вооружённых бензопилами проституток.



Страна: США
Продолжительность: 01:14:46
Перевод 1: Авторский (одноголосый закадровый) Андрей Дольский
Перевод 2: Любительский (одноголосый закадровый) Хихикающий доктор
Оригинальная аудиодорожка: английский
Файл
Качество: BDRip 720p
Видео: 1280 x720 (16:9); 6500 kbps; 23.976 fps; 0.294 bpp
Аудио 1: Russian; AC3; 48.0 KHz; 2ch; 192 kbps AVO
Аудио 2: Russian; AC3; 48.0 KHz; 2ch; 192 kbps VO
Аудио 3: English; AC3; 48.0 KHz; 2ch; 384 kbps
Аудио 4: English; AC3; 48.0 KHz; 2ch; 192 kbps Commentary
Format : Matroska
Format version : Version 4 / Version 2
File size : 3.89 GiB
Duration : 1 h 14 min
Overall bit rate : 7 459 kb/s
Encoded date : UTC 2017-05-30 04:17:21
Writing application : mkvmerge v8.3.0 ('Over the Horizon') 64bit
Writing library : libebml v1.3.1 + libmatroska v1.4.2
Attachments : poster.jpg

Video
ID : 1
Format : AVC
Format/Info : Advanced Video Codec
Format profile : High@L4.1
Format settings, CABAC : Yes
Format settings, ReFrames : 9 frames
Codec ID : V_MPEG4/ISO/AVC
Duration : 1 h 14 min
Bit rate : 6 500 kb/s
Width : 1 280 pixels
Height : 720 pixels
Display aspect ratio : 16:9
Frame rate mode : Constant
Frame rate : 23.976 (24000/1001) FPS
Color space : YUV
Chroma subsampling : 4:2:0
Bit depth : 8 bits
Scan type : Progressive
Bits/(Pixel*Frame) : 0.294
Stream size : 3.39 GiB (87%)
Writing library : x264 core 148 r2744 b97ae06
Encoding settings : cabac=1 / ref=9 / deblock=1:-3:-3 / analyse=0x3:0x133 / me=umh / subme=10 / psy=1 / psy_rd=1.00:0.50 / mixed_ref=1 / me_range=32 / chroma_me=1 / trellis=2 / 8x8dct=1 / cqm=0 / deadzone=21,11 / fast_pskip=0 / chroma_qp_offset=-4 / threads=6 / lookahead_threads=1 / sliced_threads=0 / nr=0 / decimate=0 / interlaced=0 / bluray_compat=0 / constrained_intra=0 / bframes=10 / b_pyramid=2 / b_adapt=2 / b_bias=0 / direct=3 / weightb=1 / open_gop=0 / weightp=2 / keyint=240 / keyint_min=23 / scenecut=40 / intra_refresh=0 / rc_lookahead=60 / rc=2pass / mbtree=0 / bitrate=6500 / ratetol=1.0 / qcomp=0.65 / qpmin=0 / qpmax=69 / qpstep=4 / cplxblur=20.0 / qblur=0.5 / vbv_maxrate=62500 / vbv_bufsize=78125 / nal_hrd=none / filler=0 / ip_ratio=1.40 / pb_ratio=1.30 / aq=1:1.00
Default : Yes
Forced : No

Audio #1
ID : 2
Format : AC-3
Format/Info : Audio Coding 3
Mode extension : CM (complete main)
Format settings, Endianness : Big
Codec ID : A_AC3
Duration : 1 h 14 min
Bit rate mode : Constant
Bit rate : 192 kb/s
Channel(s) : 2 channels
Channel positions : Front: L R
Sampling rate : 48.0 kHz
Frame rate : 31.250 FPS (1536 spf)
Bit depth : 16 bits
Compression mode : Lossy
Stream size : 102 MiB (3%)
Title : AVO Дольский
Language : Russian
Default : Yes
Forced : No

Audio #2
ID : 3
Format : AC-3
Format/Info : Audio Coding 3
Mode extension : CM (complete main)
Format settings, Endianness : Big
Codec ID : A_AC3
Duration : 1 h 14 min
Bit rate mode : Constant
Bit rate : 192 kb/s
Channel(s) : 2 channels
Channel positions : Front: L R
Sampling rate : 48.0 kHz
Frame rate : 31.250 FPS (1536 spf)
Bit depth : 16 bits
Compression mode : Lossy
Stream size : 102 MiB (3%)
Title : VO Хихикающий доктор
Language : Russian
Default : No
Forced : No

Audio #3
ID : 4
Format : AC-3
Format/Info : Audio Coding 3
Mode extension : CM (complete main)
Format settings, Endianness : Big
Codec ID : A_AC3
Duration : 1 h 14 min
Bit rate mode : Constant
Bit rate : 384 kb/s
Channel(s) : 2 channels
Channel positions : Front: L R
Sampling rate : 48.0 kHz
Frame rate : 31.250 FPS (1536 spf)
Bit depth : 16 bits
Compression mode : Lossy
Stream size : 205 MiB (5%)
Language : English
Default : No
Forced : No

Audio #4
ID : 5
Format : AC-3
Format/Info : Audio Coding 3
Mode extension : CM (complete main)
Format settings, Endianness : Big
Codec ID : A_AC3
Duration : 1 h 14 min
Bit rate mode : Constant
Bit rate : 192 kb/s
Channel(s) : 2 channels
Channel positions : Front: L R
Sampling rate : 48.0 kHz
Frame rate : 31.250 FPS (1536 spf)
Bit depth : 16 bits
Compression mode : Lossy
Stream size : 102 MiB (3%)
Title : Commentary
Language : English
Default : No
Forced : No

Menu
00:00:00.000 : en:00:00:00.000
00:08:17.789 : en:00:08:17.789
00:19:17.323 : en:00:19:17.323
00:27:47.416 : en:00:27:47.416
00:35:17.073 : en:00:35:17.073
00:47:13.831 : en:00:47:13.831
00:57:58.767 : en:00:57:58.767
01:04:54.307 : en:01:04:54.307



Скачать Голливудские.шлюхи.с.бензопилами.Hollywood.Chainsaw.Hookers.(Фред.Олен.Рэй).[1988.ужасы.комедия.BDRip].[720p].[AVO]+[VO]+[Оригинал.Eng]+[Commentary.Eng].torrent без регистрации
Золото ЗОЛОТАЯ РАЗДАЧА! СКАЧАННОЕ НЕ ЗАСЧИТЫВАЕТСЯ! Золото
Дата: Зарегистрирован   [ Тип: внутренний ] Как тут cкачать?
MAGNET ссылка
MAGNET ссылка


Скачать .torrent

20 KB

Статус: проверено DHT
Скачан: торрент - 27 раз, раздача полностью - 4 раз
Размер: 3,89 GB
Оценка:  - (Голосов: 0)
Поблагодарили: 0
Поделиться ссылкой на эту раздачу с друзьями:
В контактеFacebookОдноклассникиTwitterLivejournalМой МирLiveinternet
 

 
Показать сообщения:    


Вы не можете начинать темы
Вы не можете отвечать на сообщения
Вы не можете редактировать свои сообщения
Вы не можете удалять свои сообщения
Вы не можете голосовать в опросах
Вы не можете прикреплять файлы к сообщениям
Вы можете скачивать файлы