Loading...
Error

Скачать Детсадовский полицейский / Kindergarten Cop (Айвэн Рейтмен) [1990, боевик, триллер, комедия, криминал, BDRip] [720p] [MVO]x6+[DVO]x2+[AVO]x2+[VO]+[Eng] торрент без регистрации

Статистика раздачи
Размер:  10,9 GB   |    Скачан:  33 раза
Сидов:  1  [  0 KB/s  ]  
 
 
 
Автор Сообщение

Marsianka

[] 

Название: Детсадовский полицейский
Оригинальное название: Kindergarten Cop
Год выпуска: 1990
Жанр: боевик, триллер, комедия, криминал
Выпущено: США, Imagine Entertainment, Universal Pictures
Режиссер: Айвэн Рейтмен
В ролях: Арнольд Шварценеггер, Пенелопа Энн Миллер, Памела Рид, Линда Хант, Ричард Тайсон, Кэрролл Бэйкер, Кэти Мориарти, Джозеф Казинс, Кристиан Казинс, Парк Овералл, Джейн Брук, Ричард Портноу, Том Курландер, Аликс Коромзай, Бетти Лу Хенсон, Хэйди Свидберг, Боб Нельсон, Молли Клитор, Джин Элман, Сьюзэн Барнс, Том Дуган, Рома, Джейсон Стюарт, Ким Делгадо, Рэй Глэнзманн

Перевод: Профессиональный многоголосый, профессиональный двухголосый, авторский

Сюжет фильма

Детектив Джон Кимбл, ветеран грязных улиц Лос-Анджелеса, готов пойти на что угодно, лишь бы найти опасного преступника. Но для того чтобы заманить в ловушку хитрого преступника, ему приходится устроиться воспитателем в детский сад. И как выяснилось, с шестилетними бандитами справиться гораздо труднее, чем со взрослыми... И вот когда он завоевывает уважение малышей и любовь прекрасной учительницы, ему предстоит схватка с преступником.



Файл
Качество: BDRip 720p (исходник Blu-ray Remux)
Видео: 1280x694, ~10310 Кбит/сек, 23.976 кадр/сек, AVC, x264, High@L4.1, 0.471 Бит/[Пиксели*Кадры]
Аудио 1: AC3 2.0 48 kHz 224 kbps - Двухголосый закадровый, Universal
Аудио 2: AC3 2.0 48 kHz 224 kbps - Двухголосый закадровый, Премьер Видео Фильм
Аудио 3: AC3 2.0 48 kHz 640 kbps - Многоголосый закадровый
Аудио 4: AC3 2.0 48 kHz 192 kbps - Многоголосый закадровый, ОРТ
Аудио 5: AC3 2.0 48 kHz 192 kbps - Многоголосый закадровый, НТВ
Аудио 6: AC3 2.0 48 kHz 192 kbps - Многоголосый закадровый, ТНТ
Аудио 7: AC3 2.0 48 kHz 640 kbps - Авторский, А. Михалёв
Аудио 8: AC3 2.0 48 kHz 192 kbps - Авторский, П. Прямостанов
Аудио 9: AC3 2.0 48 kHz 192 kbps - Одноголосый закадровый, неизвестный
Аудио 10: AC3 2.0 48 kHz 192 kbps - Многоголосый закадровый, Новий канал
Аудио 11: AC3 2.0 48 kHz 192 kbps - Многоголосый закадровый, Україна
Аудио 12: AC3 2.0 48 kHz 640 kbps - English
Чаптеры: есть
Продолжительность: 01:51:14

Format : Matroska
Format version : Version 2
File size : 10.9 GiB
Duration : 1h 51mn
Overall bit rate : 14.0 Mbps
Movie name : Kindergarten Cop.(1990).BDRip.720p.[denis100]
Encoded date : UTC 2014-06-28 06:13:37
Writing application : mkvmerge v5.8.0 ('No Sleep / Pillow') built on Sep 2 2012 15:37:04
Writing library : libebml v1.2.3 + libmatroska v1.3.0

Video
ID : 1
Format : AVC
Format/Info : Advanced Video Codec
Format profile : High@L4.1
Format settings, CABAC : Yes
Format settings, ReFrames : 9 frames
Codec ID : V_MPEG4/ISO/AVC
Duration : 1h 51mn
Bit rate : 10.0 Mbps
Width : 1 280 pixels
Height : 694 pixels
Display aspect ratio : 1.85:1
Frame rate mode : Constant
Frame rate : 23.976 fps
Color space : YUV
Chroma subsampling : 4:2:0
Bit depth : 8 bits
Scan type : Progressive
Bits/(Pixel*Frame) : 0.471
Stream size : 7.80 GiB (72%)
Title : Kindergarten Cop.(1990).BDRip.720p.[denis100]
Writing library : x264 core 138 r2358 9e941d1
Encoding settings : cabac=1 / ref=9 / deblock=1:-3:-3 / analyse=0x3:0x133 / me=umh / subme=11 / psy=1 / psy_rd=1.00:0.15 / mixed_ref=1 / me_range=32 / chroma_me=1 / trellis=2 / 8x8dct=1 / cqm=0 / deadzone=21,11 / fast_pskip=0 / chroma_qp_offset=-3 / threads=6 / lookahead_threads=1 / sliced_threads=0 / nr=0 / decimate=1 / interlaced=0 / bluray_compat=0 / constrained_intra=0 / bframes=8 / b_pyramid=2 / b_adapt=2 / b_bias=0 / direct=3 / weightb=1 / open_gop=0 / weightp=2 / keyint=240 / keyint_min=23 / scenecut=40 / intra_refresh=0 / rc_lookahead=40 / rc=crf / mbtree=1 / crf=17.8 / qcomp=0.60 / qpmin=0 / qpmax=69 / qpstep=4 / ip_ratio=1.40 / aq=2:0.90
Language : English
Default : Yes
Forced : No

Audio #1
ID : 2
Format : AC-3
Format/Info : Audio Coding 3
Mode extension : CM (complete main)
Format settings, Endianness : Big
Codec ID : A_AC3
Duration : 1h 51mn
Bit rate mode : Constant
Bit rate : 224 Kbps
Channel(s) : 2 channels
Channel positions : Front: L R
Sampling rate : 48.0 KHz
Bit depth : 16 bits
Compression mode : Lossy
Stream size : 178 MiB (2%)
Title : Двухголосый закадровый, Universal
Language : Russian
Default : Yes
Forced : No

Audio #2
ID : 3
Format : AC-3
Format/Info : Audio Coding 3
Mode extension : CM (complete main)
Format settings, Endianness : Big
Codec ID : A_AC3
Duration : 1h 51mn
Bit rate mode : Constant
Bit rate : 224 Kbps
Channel(s) : 2 channels
Channel positions : Front: L R
Sampling rate : 48.0 KHz
Bit depth : 16 bits
Compression mode : Lossy
Stream size : 178 MiB (2%)
Title : Двухголосый закадровый, Премьер Видео Фильм
Language : Russian
Default : No
Forced : No

Audio #3
ID : 4
Format : AC-3
Format/Info : Audio Coding 3
Mode extension : CM (complete main)
Format settings, Endianness : Big
Codec ID : A_AC3
Duration : 1h 51mn
Bit rate mode : Constant
Bit rate : 640 Kbps
Channel(s) : 2 channels
Channel positions : Front: L R
Sampling rate : 48.0 KHz
Bit depth : 16 bits
Compression mode : Lossy
Stream size : 509 MiB (5%)
Title : Многоголосый закадровый
Language : Russian
Default : No
Forced : No

Audio #4
ID : 5
Format : AC-3
Format/Info : Audio Coding 3
Mode extension : CM (complete main)
Format settings, Endianness : Big
Codec ID : A_AC3
Duration : 1h 51mn
Bit rate mode : Constant
Bit rate : 192 Kbps
Channel(s) : 2 channels
Channel positions : Front: L R
Sampling rate : 48.0 KHz
Bit depth : 16 bits
Compression mode : Lossy
Stream size : 153 MiB (1%)
Title : Многоголосый закадровый, ОРТ
Language : Russian
Default : No
Forced : No

Audio #5
ID : 6
Format : AC-3
Format/Info : Audio Coding 3
Mode extension : CM (complete main)
Format settings, Endianness : Big
Codec ID : A_AC3
Duration : 1h 51mn
Bit rate mode : Constant
Bit rate : 192 Kbps
Channel(s) : 2 channels
Channel positions : Front: L R
Sampling rate : 48.0 KHz
Bit depth : 16 bits
Compression mode : Lossy
Stream size : 153 MiB (1%)
Title : Многоголосый закадровый, НТВ
Language : Russian
Default : No
Forced : No

Audio #6
ID : 7
Format : AC-3
Format/Info : Audio Coding 3
Mode extension : CM (complete main)
Format settings, Endianness : Big
Codec ID : A_AC3
Duration : 1h 51mn
Bit rate mode : Constant
Bit rate : 192 Kbps
Channel(s) : 2 channels
Channel positions : Front: L R
Sampling rate : 48.0 KHz
Bit depth : 16 bits
Compression mode : Lossy
Stream size : 153 MiB (1%)
Title : Многоголосый закадровый, ТНТ
Language : Russian
Default : No
Forced : No

Audio #7
ID : 8
Format : AC-3
Format/Info : Audio Coding 3
Mode extension : CM (complete main)
Format settings, Endianness : Big
Codec ID : A_AC3
Duration : 1h 51mn
Bit rate mode : Constant
Bit rate : 640 Kbps
Channel(s) : 2 channels
Channel positions : Front: L R
Sampling rate : 48.0 KHz
Bit depth : 16 bits
Compression mode : Lossy
Stream size : 509 MiB (5%)
Title : Авторский, А. Михалёв
Language : Russian
Default : No
Forced : No

Audio #8
ID : 9
Format : AC-3
Format/Info : Audio Coding 3
Mode extension : CM (complete main)
Format settings, Endianness : Big
Codec ID : A_AC3
Duration : 1h 51mn
Bit rate mode : Constant
Bit rate : 192 Kbps
Channel(s) : 2 channels
Channel positions : Front: L R
Sampling rate : 48.0 KHz
Bit depth : 16 bits
Compression mode : Lossy
Stream size : 153 MiB (1%)
Title : Авторский, П. Прямостанов
Language : Russian
Default : No
Forced : No

Audio #9
ID : 10
Format : AC-3
Format/Info : Audio Coding 3
Mode extension : CM (complete main)
Format settings, Endianness : Big
Codec ID : A_AC3
Duration : 1h 51mn
Bit rate mode : Constant
Bit rate : 192 Kbps
Channel(s) : 2 channels
Channel positions : Front: L R
Sampling rate : 48.0 KHz
Bit depth : 16 bits
Compression mode : Lossy
Stream size : 153 MiB (1%)
Title : Одноголосый закадровый, неизвестный
Language : Russian
Default : No
Forced : No

Audio #10
ID : 11
Format : AC-3
Format/Info : Audio Coding 3
Mode extension : CM (complete main)
Format settings, Endianness : Big
Codec ID : A_AC3
Duration : 1h 51mn
Bit rate mode : Constant
Bit rate : 192 Kbps
Channel(s) : 2 channels
Channel positions : Front: L R
Sampling rate : 48.0 KHz
Bit depth : 16 bits
Compression mode : Lossy
Stream size : 153 MiB (1%)
Title : Многоголосый закадровый, Новий канал
Language : Ukrainian
Default : No
Forced : No

Audio #11
ID : 12
Format : AC-3
Format/Info : Audio Coding 3
Mode extension : CM (complete main)
Format settings, Endianness : Big
Codec ID : A_AC3
Duration : 1h 51mn
Bit rate mode : Constant
Bit rate : 192 Kbps
Channel(s) : 2 channels
Channel positions : Front: L R
Sampling rate : 48.0 KHz
Bit depth : 16 bits
Compression mode : Lossy
Stream size : 153 MiB (1%)
Title : Многоголосый закадровый, Україна
Language : Ukrainian
Default : No
Forced : No

Audio #12
ID : 13
Format : AC-3
Format/Info : Audio Coding 3
Mode extension : CM (complete main)
Format settings, Endianness : Big
Codec ID : A_AC3
Duration : 1h 51mn
Bit rate mode : Constant
Bit rate : 640 Kbps
Channel(s) : 2 channels
Channel positions : Front: L R
Sampling rate : 48.0 KHz
Bit depth : 16 bits
Compression mode : Lossy
Stream size : 509 MiB (5%)
Title : English
Language : English
Default : No
Forced : No

Menu
00:00:00.000 : en:00:00:00.000
00:09:53.092 : en:00:09:53.092
00:15:13.579 : en:00:15:13.579
00:21:55.897 : en:00:21:55.897
00:25:05.295 : en:00:25:05.295
00:36:24.098 : en:00:36:24.098
00:42:38.889 : en:00:42:38.889
00:47:33.851 : en:00:47:33.851
01:02:02.468 : en:01:02:02.468
01:12:24.673 : en:01:12:24.673
01:20:38.917 : en:01:20:38.917
01:24:14.883 : en:01:24:14.883
01:28:32.640 : en:01:28:32.640
01:32:02.516 : en:01:32:02.516
01:38:32.156 : en:01:38:32.156
01:44:47.614 : en:01:44:47.614



Скачать Детсадовский.полицейский.Kindergarten.Cop.(Айвэн.Рейтмен).[1990.боевик.триллер.комедия.криминал.BDRip].[720p].[MVO]x6+[DVO]x2+[AVO]x2+[VO]+[Eng].torrent без регистрации
Золото ЗОЛОТАЯ РАЗДАЧА! СКАЧАННОЕ НЕ ЗАСЧИТЫВАЕТСЯ! Золото
Дата: Зарегистрирован   [ Тип: внутренний ] Как тут cкачать?
MAGNET ссылка
MAGNET ссылка


Скачать .torrent

56 KB

Статус: проверено DHT
Скачан: торрент - 33 раз, раздача полностью - 7 раз
Размер: 10,9 GB
Оценка:  - (Голосов: 0)
Поблагодарили: 0
Поделиться ссылкой на эту раздачу с друзьями:
В контактеFacebookОдноклассникиTwitterLivejournalМой МирLiveinternet
 

 
Показать сообщения:    


Вы не можете начинать темы
Вы не можете отвечать на сообщения
Вы не можете редактировать свои сообщения
Вы не можете удалять свои сообщения
Вы не можете голосовать в опросах
Вы не можете прикреплять файлы к сообщениям
Вы можете скачивать файлы