Loading...
Error

Скачать Вавилон-Берлин / Babylon Berlin (Сезон 02) (Том Тыквер, Хендрик Хандлёгтен, Ахим фон Боррис) [2017, Драма, криминал, HDTV 1080p] [MVO] (SDI Media) + [Original] торрент без регистрации

Статистика раздачи
Размер:  17,27 GB   |    Скачан:  21 раз
Сидов:  1  [  0 KB/s  ]  
 
 
 
Автор Сообщение

МихаНЕзатор

[] 

Вавилон-Берлин / Babylon Berlin
Год выпуска: 2017
Страна: Германия
Жанр: Драма, криминал
Продолжительность: ~ 00:45:00
Перевод: Профессиональный (многоголосый закадровый) SDI Media по заказу Viasat

Режиссёр: Том Тыквер, Хендрик Хандлёгтен, Ахим фон Боррис

В ролях: Леони Бенеш, Фолькер Брух, Лив Лиза Фрис, Валера Канищев, Дмитрий Александров, Денис Бургазлиев, Олег Тихомиров, Антон, фон Люк, Роланд Вольф, Питер Шнайдер

Описание: Действие происходит в Германии в конце 1920-х — начале 1930-х годов, до прихода к власти нацистов. Комиссар полиции Гереон Рат занимается раскрытием различных преступлений в Берлине — от убийств до торговли наркотиками. Главный герой видит, как стремительно меняется общество, и на первый план выходят такие явления, как эмансипация и экстремизм…



Качество: HDTV 1080p
Контейнер: MKV
Видео: H.264, 1920x1080 (16:9), 25.000 fps, ~ 7500 Kbps
Аудио: AC3, 48 kHz, 2ch, 192 kbps - Rus
Аудио 2: AC3, 48 kHz, 6 ch, 384 kbps - Ger
Субтитры: Отсутствуют
Реклама: Отсутствует
Khoren2013

Озвучивание: SDI Media по заказу Viasat
General
Unique ID : 176524797408259943088947788997288876496 (0x84CD7077A3939264949F3DEFC62D59D0)
Complete name : E:\Torrent\Babylon.Berlin.S02.1080p.HDTV.H.264-SDI\Babylon.Berlin.S02E01.1080p.HDTV.H.264-SDI.mkv
Format : Matroska
Format version : Version 4 / Version 2
File size : 2.20 GiB
Duration : 43 min 59 s
Overall bit rate : 7 174 kb/s
Encoded date : UTC 2017-11-12 12:46:40
Writing application : mkvmerge v17.0.0 ('Be Ur Friend') 64-bit
Writing library : libebml v1.3.5 + libmatroska v1.4.8

Video
ID : 1
Format : AVC
Format/Info : Advanced Video Codec
Format profile : High@L4
Format settings : CABAC / 4 Ref Frames
Format settings, CABAC : Yes
Format settings, RefFrames : 4 frames
Format settings, GOP : M=8, N=24
Codec ID : V_MPEG4/ISO/AVC
Duration : 43 min 59 s
Bit rate : 6 596 kb/s
Width : 1 920 pixels
Height : 1 080 pixels
Display aspect ratio : 16:9
Frame rate mode : Constant
Frame rate : 25.000 FPS
Standard : Component
Color space : YUV
Chroma subsampling : 4:2:0
Bit depth : 8 bits
Scan type : MBAFF
Scan type, store method : Interleaved fields
Scan order : Top Field First
Bits/(Pixel*Frame) : 0.127
Stream size : 2.03 GiB (92%)
Language : German
Default : Yes
Forced : No
Color range : Limited
Color primaries : BT.709
Transfer characteristics : BT.709
Matrix coefficients : BT.709

Audio #1
ID : 2
Format : AC-3
Format/Info : Audio Coding 3
Codec ID : A_AC3
Duration : 43 min 59 s
Bit rate mode : Constant
Bit rate : 192 kb/s
Channel(s) : 2 channels
Channel positions : Front: L R
Sampling rate : 48.0 kHz
Frame rate : 31.250 FPS (1536 SPF)
Bit depth : 16 bits
Compression mode : Lossy
Stream size : 60.4 MiB (3%)
Language : Russian
Service kind : Complete Main
Default : Yes
Forced : No

Audio #2
ID : 3
Format : AC-3
Format/Info : Audio Coding 3
Codec ID : A_AC3
Duration : 43 min 59 s
Bit rate mode : Constant
Bit rate : 384 kb/s
Channel(s) : 6 channels
Channel positions : Front: L C R, Side: L R, LFE
Sampling rate : 48.0 kHz
Frame rate : 31.250 FPS (1536 SPF)
Bit depth : 16 bits
Compression mode : Lossy
Stream size : 121 MiB (5%)
Language : German
Service kind : Complete Main
Default : No
Forced : No



Скачать Вавилон-Берлин.Babylon.Berlin.(Сезон.02).(Том.Тыквер.Хендрик.Хандлёгтен.Ахим.фон.Боррис).[2017.Драма.криминал.HDTV.1080p].[MVO].(SDI.Media).+.[Original].torrent без регистрации
Золото ЗОЛОТАЯ РАЗДАЧА! СКАЧАННОЕ НЕ ЗАСЧИТЫВАЕТСЯ! Золото
Дата: Зарегистрирован   [ Тип: внутренний ] Как тут cкачать?
MAGNET ссылка
MAGNET ссылка


Скачать .torrent

45 KB

Статус: проверено DHT
Скачан: торрент - 21 раз, раздача полностью - 3 раз
Размер: 17,27 GB
Оценка:  - (Голосов: 0)
Поблагодарили: 0
Поделиться ссылкой на эту раздачу с друзьями:
В контактеFacebookОдноклассникиTwitterLivejournalМой МирLiveinternet
 

 
Показать сообщения:    


Вы не можете начинать темы
Вы не можете отвечать на сообщения
Вы не можете редактировать свои сообщения
Вы не можете удалять свои сообщения
Вы не можете голосовать в опросах
Вы не можете прикреплять файлы к сообщениям
Вы можете скачивать файлы