Loading...
Error

Скачать Штат одинокой звезды / Lone Star State of Mind (Дэвид Семел) [2002, комедия, криминал, WEBRip] [720p] [MVO Rus]+[Sub Eng] торрент без регистрации

Статистика раздачи
Размер:  2,88 GB   |    Скачан:  26 раз
Сидов:  1  [  0 KB/s  ]  
 
 
 
Автор Сообщение

Marsianka

[] 

Информация о фильме
Название: Штат одинокой звезды
Оригинальное название: Lone Star State of Mind
Год выхода: 2002
Жанр: комедия, криминал
Режиссер: Дэвид Семел
В ролях: Джошуа Джексон, Джейми Кинг, ДиДжей Куаллс, Мэттью Дэвис, Райан Херст, Джон Мелленкамп, Сэм МакМюррей, Томас Хейден Чёрч, Джулиан Дульсе Вида, Элизабет Барондес

О фильме:
Когда Господь создавал Техас, то он явно был не в ударе. По крайней мере, так считают влюбленные друг в друга Эрл и Бэби. Выросшие в самом обычном городишке этого штата они только и мечтают, как бы побыстрее слинять отсюда. И конечно в Калифорнию, в Лос-Анджелес, где можно попытать счастья стать богатыми и знаменитыми! Увы все эти грандиозные планы героев упираются в тупик имя которому — Джуниор, кузен Бэби. Этот чудак умеет влипать в неприятности как никто другой. И как никто другой — втягивать в свои проблемы других. Не успевают наши голубки и глазом моргнуть, как оказываются по уши увязшими в аферах Джуниора. И если в течение 48 часов им не удастся выпутаться из них и выпутать кузена, то Эрл и Бэби могут забыть о своих планах насчет Лос-Анджелеса…


Страна: США
Студия: Bedford Falls Company
Продолжительность: 01:28:01
Перевод: Профессиональный многоголосый

Файл
Кодек: x264
Качество: WEBRip 720p
Видео: AVC, 1280x548 (2.35:1), 23.976 fps, 4 549 Kbps (0.270 bit/pixel)
Аудио: MP3, 48.0 KHz, 2 ch, 128 Kbps, CBR (Russian)
Субтитры: English Релиз:
Полное имя : D:ФИЛЬМЫШтат одинокой звезды.2002 (Д.Джексон, М.Дэвис).k.e.n & MegaPeer.mkv
Формат : Matroska
Версия формата : Version 2
Размер файла : 2,88 Гбайт
Продолжительность : 1 ч. 28 м.
Общий поток : 4675 Кбит/сек
Название фильма : Lone.Star.State.of.Mind.2002
Дата кодирования : UTC 2017-12-16 05:52:05
Программа кодирования : mkvmerge v5.3.0 ('I could have danced') built on Feb 9 2012 10:38:07
Библиотека кодирования : libebml v1.2.3 + libmatroska v1.3.0
Обложка : Yes
Attachments : cover.jpg

Видео
Идентификатор : 1
Формат : AVC
Формат/Информация : Advanced Video Codec
Профиль формата : High@L4.1
Параметр CABAC формата : Да
Параметр ReFrames формата : 12 кадров
Идентификатор кодека : V_MPEG4/ISO/AVC
Продолжительность : 1 ч. 28 м.
Битрейт : 4549 Кбит/сек
Ширина : 1280 пикселей
Высота : 548 пикселей
Соотношение сторон : 2,35:1
Режим частоты кадров : Постоянный
Частота кадров : 23,976 (24000/1001) кадра/сек
Цветовое пространство : YUV
Субдискретизация насыщенности : 4:2:0
Битовая глубина : 8 бит
Тип развёртки : Прогрессивная
Бит/(Пиксели*Кадры) : 0.270
Размер потока : 2,74 Гбайт (95%)
Библиотека кодирования : x264 core 146 r2538 121396c
Настройки программы : cabac=1 / ref=12 / deblock=1:-3:-3 / analyse=0x3:0x133 / me=umh / subme=11 / psy=1 / psy_rd=1.00:0.05 / mixed_ref=1 / me_range=32 / chroma_me=1 / trellis=2 / 8x8dct=1 / cqm=0 / deadzone=21,11 / fast_pskip=0 / chroma_qp_offset=-3 / threads=12 / lookahead_threads=3 / sliced_threads=0 / nr=0 / decimate=0 / interlaced=0 / bluray_compat=0 / constrained_intra=0 / bframes=11 / b_pyramid=2 / b_adapt=2 / b_bias=0 / direct=3 / weightb=1 / open_gop=0 / weightp=2 / keyint=240 / keyint_min=23 / scenecut=40 / intra_refresh=0 / rc=2pass / mbtree=0 / bitrate=4549 / ratetol=1.0 / qcomp=0.60 / qpmin=0 / qpmax=69 / qpstep=4 / cplxblur=20.0 / qblur=0.5 / ip_ratio=1.40 / pb_ratio=1.30 / aq=3:0.90
Язык : English
Default : Да
Forced : Нет

Аудио
Идентификатор : 2
Формат : MPEG Audio
Версия формата : Version 1
Профиль формата : Layer 3
Идентификатор кодека : A_MPEG/L3
Идентификатор кодека/Подсказка : MP3
Продолжительность : 1 ч. 28 м.
Вид битрейта : Постоянный
Битрейт : 128 Кбит/сек
Каналы : 2 канала
Частота : 48,0 КГц
Метод сжатия : С потерями
Размер потока : 80,6 Мбайт (3%)
Заголовок : MVO
Библиотека кодирования : LAME3.98.2
Язык : Russian
Default : Да
Forced : Нет

Текст
Идентификатор : 3
Формат : UTF-8
Идентификатор кодека : S_TEXT/UTF8
Идентификатор кодека/Информация : UTF-8 Plain Text
Язык : English
Default : Нет
Forced : Нет



Скачать Штат.одинокой.звезды.Lone.Star.State.of.Mind.(Дэвид.Семел).[2002.комедия.криминал.WEBRip].[720p].[MVO.Rus]+[Sub.Eng].torrent без регистрации
Золото ЗОЛОТАЯ РАЗДАЧА! СКАЧАННОЕ НЕ ЗАСЧИТЫВАЕТСЯ! Золото
Дата: Зарегистрирован   [ Тип: внутренний ] Как тут cкачать?
MAGNET ссылка
MAGNET ссылка


Скачать .torrent

15 KB

Статус: проверено DHT
Скачан: торрент - 26 раз, раздача полностью - 3 раз
Размер: 2,88 GB
Оценка:  - (Голосов: 0)
Поблагодарили: 0
Поделиться ссылкой на эту раздачу с друзьями:
В контактеFacebookОдноклассникиTwitterLivejournalМой МирLiveinternet
 

 
Показать сообщения:    


Вы не можете начинать темы
Вы не можете отвечать на сообщения
Вы не можете редактировать свои сообщения
Вы не можете удалять свои сообщения
Вы не можете голосовать в опросах
Вы не можете прикреплять файлы к сообщениям
Вы можете скачивать файлы