Loading...
Error

Скачать Феникс / Phoenix (Дэнни Кэннон) [1998, триллер, криминал, драма, WEB-DL] [1080p] [DVO]+[AVO]x3+[Eng]+[Sub Rus, Eng]x2 торрент без регистрации

Статистика раздачи
Размер:  7,45 GB   |    Скачан:  20 раз
Сидов:  1  [  0 KB/s  ]  
 
 
 
Автор Сообщение

Marsianka

[] 

Информация о фильме
Название: Феникс
Оригинальное название: Phoenix
Год выпуска: 1998
Жанр: триллер, криминал, драма
Режиссер: Дэнни Кэннон
В ролях: Рэй Лиотта (Harry Collins), Энтони ЛаПалья (Mike Henshaw), Дэниэл Болдуин (James Nutter), Джереми Пивен (Fred Shuster), Ройс Д. Эпплгейт (Dickerman), Ксандер Беркли (Lt. Clyde Webber), Тамара Клеттербак (Waitress), Ванесса Мандей (Betsy), Ал Сапиенца (Cop), Ивет Круз (Maria), Джон Генри Уайтакер (Husband), Гленн Моршауэр (Anti-Abortionist)

О фильме:
Гарри Коллинз — бесстрашный офицер полиции аризонского городка Феникс — всю жизнь боролся не только с преступностью, но и со своими пороками, главный из которых азартные игры. Не в состоянии разделаться с долгами, он вместе со своими верными друзьями, безжалостными полицейскими, решает ограбить подпольного ростовщика.

Налет оборачивается кровавой бойней, и теперь, сорвав огромный куш и получив наконец шанс выйти из грязной игры, он не может довериться никому…



MPAA: R - Лицам до 17 лет обязательно присутствие взрослого

Страна: США
Студия: Trimark Pictures, Lakeshore Entertainment, Graham - Nevinny Productions
Продолжительность: 01:47:27
Перевод: Профессиональный (двухголосый, закадровый), Авторский (одноголосый, закадровый)

Файл
Качество: WEB-DL 1080p
Формат: Matroska
Видео: 1920x816 at 23.976 fps, x264, ~8100 kbps avg
Аудио#1: Russian: 48 kHz, AC3, 3/2 (L,C,R,l,r) + LFE ch, ~448 kbps avg |Двухголосый закадровый, R5|
Аудио#2: Russian: 48 kHz, AC3, 2/0 (L,R) ch, ~192 kbps avg |Авторский, Ю.Сербин|
Аудио#3: Russian: 48 kHz, AC3, 2/0 (L,R) ch, ~192 kbps avg |Авторский, С.Визгунов|
Аудио#4: Russian: 48 kHz, AC3, 2/0 (L,R) ch, ~192 kbps avg |Авторский, М.Яроцкий|
Аудио#5: English: 48 kHz, E-AC3, 3/2 (L,C,R,l,r) + LFE ch, ~640 kbps avg
Субтитры: Russian (R5), English
***Сохранены оригинальные главы;
***Исходник видео - Phoenix.1998.1080p.WEBRip.DDP5.1.x264-NTb;
***Релиз - ylnian.
Общее
Уникальный идентификатор : 147052747940510591156490947376758791010 (0x6EA1543DB07D8797F2CFE31C0D6E1B62)
Полное имя : Phoenix.1998.WEBRip.1080p-ylnian.mkv
Формат : Matroska
Версия формата : Version 4 / Version 2
Размер файла : 7,45 Гбайт
Продолжительность : 1 ч. 47 м.
Режим общего битрейта : Переменный
Общий поток : 9927 Кбит/сек
Название фильма : Phoenix.1998.WEB-DLRip.1080p-ylnian
Дата кодирования : UTC 2017-12-29 07:22:30
Программа кодирования : mkvmerge v19.0.0 ('Brave Captain') 64-bit
Библиотека кодирования : libebml v1.3.5 + libmatroska v1.4.8
Attachment : Yes

Видео
Идентификатор : 1
Формат : AVC
Формат/Информация : Advanced Video Codec
Профиль формата : High@L4.0
Параметр CABAC формата : Да
Параметр ReFrames формата : 4 кадра
Идентификатор кодека : V_MPEG4/ISO/AVC
Продолжительность : 1 ч. 47 м.
Вид битрейта : Переменный
Битрейт : 8066 Кбит/сек
Максимальный битрейт : 15,0 Мбит/сек
Ширина : 1920 пикселей
Высота : 816 пикселей
Соотношение сторон : 2,35:1
Режим частоты кадров : Постоянный
Частота кадров : 23,976 кадра/сек
Цветовое пространство : YUV
Субдискретизация насыщенности : 4:2:0
Битовая глубина : 8 бит
Тип развёртки : Прогрессивная
Бит/(Пиксели*Кадры) : 0.215
Размер потока : 6,05 Гбайт (81%)
Заголовок : Phoenix 1998 1080p WEBRip DD5.1 x264-NTb
Библиотека кодирования : x264 core 148 r2623 d5b2374
Настройки программы : cabac=1 / ref=4 / deblock=1:-1:-1 / analyse=0x3:0x133 / me=umh / subme=9 / psy=1 / psy_rd=1.00:0.15 / mixed_ref=1 / me_range=24 / chroma_me=1 / trellis=2 / 8x8dct=1 / cqm=0 / deadzone=21,11 / fast_pskip=1 / chroma_qp_offset=-3 / threads=25 / lookahead_threads=4 / sliced_threads=0 / nr=150 / decimate=1 / interlaced=0 / bluray_compat=0 / constrained_intra=0 / bframes=8 / b_pyramid=2 / b_adapt=2 / b_bias=0 / direct=3 / weightb=1 / open_gop=0 / weightp=2 / keyint=120 / keyint_min=61 / scenecut=0 / intra_refresh=0 / rc_lookahead=120 / rc=crf / mbtree=1 / crf=18.0 / qcomp=0.60 / qpmin=0 / qpmax=69 / qpstep=4 / vbv_maxrate=15000 / vbv_bufsize=31250 / crf_max=0.0 / nal_hrd=vbr / filler=0 / ip_ratio=1.40 / aq=3:1.00
Язык : English
Default : Да
Forced : Да
Основные цвета : BT.709
Характеристики трансфера : BT.709
Коэффициенты матрицы : BT.709

Аудио #1
Идентификатор : 2
Формат : AC-3
Формат/Информация : Audio Coding 3
Расширение режима : CM (complete main)
Параметр Endianness формата : Big
Идентификатор кодека : A_AC3
Продолжительность : 1 ч. 47 м.
Вид битрейта : Постоянный
Битрейт : 448 Кбит/сек
Каналы : 6 каналов
Расположение каналов : Front: L C R, Side: L R, LFE
Частота : 48,0 КГц
Битовая глубина : 16 бит
Метод сжатия : С потерями
Размер потока : 344 Мбайт (5%)
Заголовок : DVO (R5)
Язык : Russian
Default : Да
Forced : Да

Аудио #2
Идентификатор : 3
Формат : AC-3
Формат/Информация : Audio Coding 3
Расширение режима : CM (complete main)
Параметр Endianness формата : Big
Идентификатор кодека : A_AC3
Продолжительность : 1 ч. 47 м.
Вид битрейта : Постоянный
Битрейт : 192 Кбит/сек
Каналы : 2 канала
Расположение каналов : Front: L R
Частота : 48,0 КГц
Битовая глубина : 16 бит
Метод сжатия : С потерями
Размер потока : 148 Мбайт (2%)
Заголовок : AVO (Ю. Сербин)
Язык : Russian
Default : Нет
Forced : Нет

Аудио #3
Идентификатор : 4
Формат : AC-3
Формат/Информация : Audio Coding 3
Расширение режима : CM (complete main)
Параметр Endianness формата : Big
Идентификатор кодека : A_AC3
Продолжительность : 1 ч. 47 м.
Вид битрейта : Постоянный
Битрейт : 192 Кбит/сек
Каналы : 2 канала
Расположение каналов : Front: L R
Частота : 48,0 КГц
Битовая глубина : 16 бит
Метод сжатия : С потерями
Размер потока : 148 Мбайт (2%)
Заголовок : AVO (С. Визгунов)
Язык : Russian
Default : Нет
Forced : Нет

Аудио #4
Идентификатор : 5
Формат : AC-3
Формат/Информация : Audio Coding 3
Расширение режима : CM (complete main)
Параметр Endianness формата : Big
Идентификатор кодека : A_AC3
Продолжительность : 1 ч. 47 м.
Вид битрейта : Постоянный
Битрейт : 192 Кбит/сек
Каналы : 2 канала
Расположение каналов : Front: L R
Частота : 48,0 КГц
Битовая глубина : 16 бит
Метод сжатия : С потерями
Размер потока : 148 Мбайт (2%)
Заголовок : AVO (М. Яроцкий)
Язык : Russian
Default : Нет
Forced : Нет

Аудио #5
Идентификатор : 6
Формат : E-AC-3
Формат/Информация : Audio Coding 3
Параметр Endianness формата : Big
Идентификатор кодека : A_EAC3
Продолжительность : 1 ч. 47 м.
Вид битрейта : Постоянный
Битрейт : 640 Кбит/сек
Каналы : 6 каналов
Расположение каналов : Front: L C R, Side: L R, LFE
Частота : 48,0 КГц
Метод сжатия : С потерями
Размер потока : 492 Мбайт (6%)
Язык : English
Default : Нет
Forced : Нет

Текст #1
Идентификатор : 7
Формат : UTF-8
Идентификатор кодека : S_TEXT/UTF8
Идентификатор кодека/Информация : UTF-8 Plain Text
Заголовок : R5
Язык : Russian
Default : Нет
Forced : Нет

Текст #2
Идентификатор : 8
Формат : UTF-8
Идентификатор кодека : S_TEXT/UTF8
Идентификатор кодека/Информация : UTF-8 Plain Text
Язык : English
Default : Нет
Forced : Нет

Меню
00:00:00.000 : en:Chapter 01
00:04:59.870 : en:Chapter 02
00:15:19.020 : en:Chapter 03
00:26:38.280 : en:Chapter 04
00:34:58.000 : en:Chapter 05
00:46:22.650 : en:Chapter 06
00:57:03.760 : en:Chapter 07
01:07:36.720 : en:Chapter 08
01:14:51.840 : en:Chapter 09
01:22:21.870 : en:Chapter 10
01:34:52.670 : en:Chapter 11
01:43:33.530 : en:Chapter 12



Скачать Феникс.Phoenix.(Дэнни.Кэннон).[1998.триллер.криминал.драма.WEB-DL].[1080p].[DVO]+[AVO]x3+[Eng]+[Sub.Rus.Eng]x2.torrent без регистрации
Золото ЗОЛОТАЯ РАЗДАЧА! СКАЧАННОЕ НЕ ЗАСЧИТЫВАЕТСЯ! Золото
Дата: Зарегистрирован   [ Тип: внутренний ] Как тут cкачать?
MAGNET ссылка
MAGNET ссылка


Скачать .torrent

38 KB

Статус: проверено DHT
Скачан: торрент - 20 раз, раздача полностью - 6 раз
Размер: 7,45 GB
Оценка:  - (Голосов: 0)
Поблагодарили: 0
Поделиться ссылкой на эту раздачу с друзьями:
В контактеFacebookОдноклассникиTwitterLivejournalМой МирLiveinternet
 

 
Показать сообщения:    


Вы не можете начинать темы
Вы не можете отвечать на сообщения
Вы не можете редактировать свои сообщения
Вы не можете удалять свои сообщения
Вы не можете голосовать в опросах
Вы не можете прикреплять файлы к сообщениям
Вы можете скачивать файлы