Loading...
Error

Скачать Тайна 7 сестер / Seven Sisters (Томми Виркола) [2017, фантастика, боевик, триллер, драма, BDRemux] [1080p] [Dub (лицензия)]+[AVO (Живов)]+[Eng]+[Sub Rus, Eng] торрент без регистрации

Статистика раздачи
Размер:  31,06 GB   |    Скачан:  218 раз
Сидов:  1  [  0 KB/s  ]  
 
 
 
Автор Сообщение

МихаНЕзатор

[] 

Информация о фильме
Название: Тайна 7 сестер
Оригинальное название: Seven Sisters / What Happened to Monday
Год выхода: 2017
Жанр: Фантастика, боевик, триллер, драма, криминал, детектив, приключения
Режиссер: Томми Виркола

В ролях: Нуми Рапас, Марван Кензари, Уиллем Дефо, Роберт Вагнер, Гленн Клоуз, Лара Дэкаро, Пол Сверре Валхейм Хаген, Адетомива Едун, Кристиан Рубек

О фильме: В мире, где семейным парам разрешено иметь только одного ребенка, рождается семь сестер-близняшек. Родители решают сохранить всех и дают малышкам имена в честь дней недели. Так девочки и появляются на людях — каждая в свой день. Но однажды Понедельник пропадает…



Страна: Великобритания, Франция, Бельгия
Студия: Nexus Factory, Raffaella Productions, SND, Title Media, uMedia Family, VendГґme Pictures
Продолжительность: 02:03:18
Перевод: Дублированный (BD RUS), авторский (Живов)

Файл
Кодек: h.264
Качество: BDRemux 1080p
Видео: H.264/AVC, 1920x1080, 27.6 Mbps, 24 fps
Звук:
Аудио #1: AC3, 6 ch, 640 Kbps - Русский (DUB)
Аудио #2: DTS-HD MA, 6 ch, 3072 Kbps - Русский (DUB)
Аудио #3: DTS-HD MA, 6 ch, 2388 Kbps - Русский (AVO)
Аудио #4: DTS-HD MA, 6 ch, 2375 Kbps - Английский
Субтитры: Русские (Full-BD), английские (Full)

АНОНСЫ ПОПУЛЯРНЫХ РАЗДАЧ


Торрент обновлён, улучшен звук, добавлен авторский перевод!
General
Unique ID : 172477432866057464669157539047142227074 (0x81C1F1FD22771F0EB0BC85AD5A7E7C82)
Complete name : 7_Sister.2017.Remux.mkv
Format : Matroska
Format version : Version 4 / Version 2
File size : 31.1 GiB
Duration : 2 h 3 min
Overall bit rate mode : Variable
Overall bit rate : 36.1 Mb/s
Encoded date : UTC 2018-02-06 21:27:30
Writing application : mkvmerge v17.0.0 ('Be Ur Friend') 64-bit
Writing library : libebml v1.3.5 + libmatroska v1.4.8

Video
ID : 1
Format : AVC
Format/Info : Advanced Video Codec
Format profile : High@L4.1
Format settings, CABAC : Yes
Format settings, RefFrames : 2 frames
Codec ID : V_MPEG4/ISO/AVC
Duration : 2 h 3 min
Bit rate mode : Variable
Bit rate : 27.6 Mb/s
Width : 1 920 pixels
Height : 1 080 pixels
Display aspect ratio : 16:9
Frame rate mode : Constant
Frame rate : 24.000 FPS
Color space : YUV
Chroma subsampling : 4:2:0
Bit depth : 8 bits
Scan type : Progressive
Bits/(Pixel*Frame) : 0.555
Stream size : 23.8 GiB (77%)
Language : English
Default : Yes
Forced : No

Audio #1
ID : 2
Format : AC-3
Format/Info : Audio Coding 3
Format settings, Endianness : Big
Codec ID : A_AC3
Duration : 2 h 3 min
Bit rate mode : Constant
Bit rate : 640 kb/s
Channel(s) : 6 channels
Channel positions : Front: L C R, Side: L R, LFE
Sampling rate : 48.0 kHz
Frame rate : 31.250 FPS (1536 SPF)
Bit depth : 16 bits
Compression mode : Lossy
Stream size : 564 MiB (2%)
Title : DUB (BD RUS)
Language : Russian
Service kind : Complete Main
Default : Yes
Forced : No

Audio #2
ID : 3
Format : DTS
Format/Info : Digital Theater Systems
Format profile : MA / Core
Mode : 16
Format settings, Endianness : Big
Codec ID : A_DTS
Duration : 2 h 3 min
Bit rate mode : Variable / Constant
Bit rate : 3 072 kb/s / 1 509 kb/s
Channel(s) : 6 channels
Channel positions : Front: L C R, Side: L R, LFE
Sampling rate : 48.0 kHz
Frame rate : 93.750 FPS (512 SPF)
Bit depth : 24 bits
Compression mode : Lossless / Lossy
Stream size : 2.63 GiB (8%)
Title : DUB (BD RUS)
Language : Russian
Default : No
Forced : No

Audio #3
ID : 4
Format : DTS
Format/Info : Digital Theater Systems
Format profile : MA / Core
Mode : 16
Format settings, Endianness : Big
Codec ID : A_DTS
Duration : 2 h 3 min
Bit rate mode : Variable / Constant
Bit rate : 2 388 kb/s / 1 509 kb/s
Channel(s) : 6 channels
Channel positions : Front: L C R, Side: L R, LFE
Sampling rate : 48.0 kHz
Frame rate : 93.750 FPS (512 SPF)
Bit depth : 16 bits
Compression mode : Lossless / Lossy
Stream size : 2.06 GiB (7%)
Title : AVO [Живов]
Language : Russian
Default : No
Forced : No

Audio #4
ID : 5
Format : DTS
Format/Info : Digital Theater Systems
Format profile : MA / Core
Mode : 16
Format settings, Endianness : Big
Codec ID : A_DTS
Duration : 2 h 3 min
Bit rate mode : Variable / Constant
Bit rate : 2 375 kb/s / 1 509 kb/s
Channel(s) : 6 channels
Channel positions : Front: L C R, Side: L R, LFE
Sampling rate : 48.0 kHz
Frame rate : 93.750 FPS (512 SPF)
Bit depth : 16 bits
Compression mode : Lossless / Lossy
Stream size : 2.05 GiB (7%)
Language : English
Default : No
Forced : No

Text #1
ID : 6
Format : UTF-8
Codec ID : S_TEXT/UTF8
Codec ID/Info : UTF-8 Plain Text
Duration : 1 h 56 min
Bit rate : 48 b/s
Count of elements : 963
Stream size : 41.1 KiB (0%)
Title : Full (BD RUS)
Language : Russian
Default : No
Forced : No

Text #2
ID : 7
Format : UTF-8
Codec ID : S_TEXT/UTF8
Codec ID/Info : UTF-8 Plain Text
Duration : 1 h 56 min
Bit rate : 33 b/s
Count of elements : 903
Stream size : 28.5 KiB (0%)
Title : Full
Language : English
Default : No
Forced : No

Menu
00:00:00.000 : en: Chapter 1
00:09:13.667 : en: Chapter 2
00:20:16.792 : en: Chapter 3
00:29:12.333 : en: Chapter 4
00:40:32.000 : en: Chapter 5
00:51:51.750 : en: Chapter 6
00:58:04.792 : en: Chapter 7
01:14:19.833 : en: Chapter 8
01:22:25.000 : en: Chapter 9
01:32:37.958 : en: Chapter 10
01:42:29.792 : en: Chapter 11
01:49:55.875 : en: Chapter 12



Скачать Тайна.7.сестер.Seven.Sisters.(Томми.Виркола).[2017.фантастика.боевик.триллер.драма.BDRemux].[1080p].[Dub.(лицензия)]+[AVO.(Живов)]+[Eng]+[Sub.Rus.Eng].torrent без регистрации
Золото ЗОЛОТАЯ РАЗДАЧА! СКАЧАННОЕ НЕ ЗАСЧИТЫВАЕТСЯ! Золото
Дата: Зарегистрирован   [ Тип: внутренний ] Как тут cкачать?
MAGNET ссылка
MAGNET ссылка


Скачать .torrent

156 KB

Статус: проверено DHT
Скачан: торрент - 218 раз, раздача полностью - 7 раз
Размер: 31,06 GB
Оценка:  5 (Голосов: 1)
Поблагодарили: 4
Поделиться ссылкой на эту раздачу с друзьями:
В контактеFacebookОдноклассникиTwitterLivejournalМой МирLiveinternet
 

 
Показать сообщения:    


Вы не можете начинать темы
Вы не можете отвечать на сообщения
Вы не можете редактировать свои сообщения
Вы не можете удалять свои сообщения
Вы не можете голосовать в опросах
Вы не можете прикреплять файлы к сообщениям
Вы можете скачивать файлы