Loading...
Error

Скачать Хороший доктор / The Good Doctor [2017] (Сезон 1 , Серия 1- 12 из 18) (Сет Гордон) [ Драма, медицина , WEB-DLRip][1080p][HEVC ][LostFilm+NewStudiо+BaibaKo+Eng]+[Subs ENG+Rus] торрент без регистрации

Статистика раздачи
Размер:  41,6 GB   |    Скачан:  45 раз
Сидов:  2  [  65 KB/s  ]  
 
 
 
Автор Сообщение

Nikolai.Baranov

[] 





Хороший доктор / The Good Doctor Сезон 1 , Серия 1- 12 из 18




Год выпуска: 2017-2018
Выпущено: США , 3AD, EnterMedia Contents, Shore Z Productions, Sony Pictures Television
Жанр: Драма, медицина
Продолжительность: 0 00:44:00
Сезон:1
Серия:1- 12
Количество серий в сезоне: 18

Озвучка1: Профессиональный многоголосый - LostFilm -Русский

Озвучка2: Профессиональный многоголосый - NewStudiо -Русский

Озвучка 3: Профессиональный многоголосый -BaibaKo-Русский

Озвучка 4: Профессиональный многоголосый - Английский - Оригинал

Субтитры: : Russian, English SDH

Официальный сайт



Режиссер:
Сет Гордон

Актеры:
Фредди Хаймор, Николас Гонсалес, Антония Томас, Чуку Моду, Бо Гарретт, Тэмлин Томита, Хилл Харпер, Ричард Шифф, Грэм Верчир, Терил Ротери, Пейдж Спара, Ирен Кэн, Дилан Кингуэлл, Роуз Рейнджер, Адиль Зайди, Кристина Чанг, Джесика Николь, Кэтрин Лок Хэггквист



История молодого талантливого врача с синдромом саванта, обладающего уникальными способностями — невероятной памятью и фантастической чувствительностью к проблемам, вспыхивающим внутри человеческого организма. Герой становится блестящим хирургом, несмотря на это, в личностном плане его развитие соответствует уровню десятилетнего ребёнка.




Качество :WEB-DLRip 1080p
Формат: MKV
Видео кодек: H265 HEVC
Видео: 9525Kбит/сек,1920х1080(16.9),в 23.976кадр/сек, HEVC(Main@L4(Main)

Аудио Кодек:AC3

Аудио #1:AC3 ,640 Kbps, 48.0 KHz, 6 ch- LostFilm -Русский

Аудио #2:AC3 , 384 Kbps, 48.0 KHz, 6 ch- NewStudiо -Русский

Аудио #3:AC3 , 384 Kbps, 48.0 KHz, 6 ch- BaibaKo -Русский

Аудио #4: AC3, 640 Kbps, 48.0 KHz,6 ch - - English - Оригинал

Хороший доктор / The Good Doctor [2017] (Сезон 1 , Серия 1- 12 из 18) (Сет Гордон) [ Драма, медицина , WEB-DLRip][720p][H264][LostFilm+NewStudiо+BaibaKo+Eng]+[Subs ENG+Rus]


Звуковая дорожка сделана путем наложения чистого голоса озвучивателей на центральный канал оригинальной дорожки. Качество идентично звуковой дорожке.




1 сезон 1 серия - Запах гари - Burnt Food
1 сезон 2 серия - Гора Рашмор - Mount Rushmore
1 сезон 3 серия - Оливер - Oliver
1 сезон 4 серия - Трубы - Pipes
1 сезон 5 серия - Три десятых процента - Point Three Percent
1 сезон 6 серия - Не подделка - Not Fake
1 сезон 7 серия - 22 шага - 22 Steps
1 сезон 8 серия - Яблоко - Apple
1 сезон 9 серия - Нюансы - Intangibles
1 сезон 10 серия - Жертва - Sacrifice
1 сезон 11 серия - Острова. Часть первая - Islands: Part One
1 сезон 12 серия - Острова. Часть вторая - Islands (2)




Общее
Уникальный идентификатор : 219829222593931779548005203470290505541 (0xA561917878C05C58FA14E2B18433CF45)
Полное имя : E:\Nikolai.Baranov & PIRATIYA\ХОРОШИЙ ДОКТОР ( The Good Doctor)\THE_GOOD_DOCTOR_S01_Rus_Eng[LostFilm_NewStudio_ BaibaKo]_HEVC_N.B_HD_1080p\The_Good_Doctor_S01E01_3xRus_Eng_HEVC_DD5.1_N.B_HD_1080.mkv
Формат : Matroska
Версия формата : Version 4 / Version 2
Размер файла : 3,51 Гбайт
Продолжительность : 43 м. 24 с.
Общий поток : 11,6 Мбит/сек
Название фильма : The Good Doctor S01E01 @ Nikolai.Baranov & PIRATIYA
Дата кодирования : UTC 2017-12-28 07:44:48
Программа кодирования : mkvmerge v19.0.0 ('Brave Captain') 64-bit
Библиотека кодирования : libebml v1.3.5 + libmatroska v1.4.8

Видео
Идентификатор : 1
Формат : HEVC
Формат/Информация : High Efficiency Video Coding
Профиль формата : Main@L4@Main
Идентификатор кодека : V_MPEGH/ISO/HEVC
Продолжительность : 43 м. 24 с.
Битрейт : 9525 Кбит/сек
Ширина : 1920 пикселей
Высота : 1080 пикселей
Соотношение сторон : 16:9
Режим частоты кадров : Постоянный
Частота кадров : 23,976 (24000/1001) кадра/сек
Цветовое пространство : YUV
Субдискретизация насыщенности : 4:2:0
Битовая глубина : 8 бит
Бит/(Пиксели*Кадры) : 0.192
Размер потока : 2,89 Гбайт (82%)
Заголовок : The_Good_Doctor_S01E01_3xRus_Eng_HEVC_DD5.1_N.B_HD_1080p
Язык : Russian
Default : Да
Forced : Нет
Цветовой диапазон : Full

Аудио #1
Идентификатор : 4
Формат : AC-3
Формат/Информация : Audio Coding 3
Идентификатор кодека : A_AC3
Продолжительность : 43 м. 24 с.
Вид битрейта : Постоянный
Битрейт : 640 Кбит/сек
Каналы : 6 каналов
Расположение каналов : Front: L C R, Side: L R, LFE
Частота : 48,0 КГц
Частота кадров : 31,250 кадров/сек (1536 SPF)
Битовая глубина : 16 бит
Метод сжатия : С потерями
Размер потока : 199 Мбайт (6%)
Заголовок : MVO LostFilm @DD5.1 AC3, 640 Kbps, 48.0 KHz, 6 ch
Язык : Russian
ServiceKind/String : Complete Main
Default : Да
Forced : Нет

Аудио #2
Идентификатор : 5
Формат : AC-3
Формат/Информация : Audio Coding 3
Идентификатор кодека : A_AC3
Продолжительность : 43 м. 24 с.
Вид битрейта : Постоянный
Битрейт : 384 Кбит/сек
Каналы : 6 каналов
Расположение каналов : Front: L C R, Side: L R, LFE
Частота : 48,0 КГц
Частота кадров : 31,250 кадров/сек (1536 SPF)
Битовая глубина : 16 бит
Метод сжатия : С потерями
Размер потока : 119 Мбайт (3%)
Заголовок : MVO NewStudio @DD5.1 AC3, 384 Kbps, 48.0 KHz, 6 ch
Язык : Russian
ServiceKind/String : Complete Main
Default : Нет
Forced : Нет

Аудио #3
Идентификатор : 6
Формат : AC-3
Формат/Информация : Audio Coding 3
Идентификатор кодека : A_AC3
Продолжительность : 43 м. 24 с.
Вид битрейта : Постоянный
Битрейт : 384 Кбит/сек
Каналы : 6 каналов
Расположение каналов : Front: L C R, Side: L R, LFE
Частота : 48,0 КГц
Частота кадров : 31,250 кадров/сек (1536 SPF)
Битовая глубина : 16 бит
Метод сжатия : С потерями
Размер потока : 119 Мбайт (3%)
Заголовок : MVO BaibaKo @DD5.1 AC3, 384 Kbps, 48.0 KHz, 6 ch
Язык : Russian
ServiceKind/String : Complete Main
Default : Нет
Forced : Нет

Аудио #4
Идентификатор : 7
Формат : AC-3
Формат/Информация : Audio Coding 3
Идентификатор кодека : A_AC3
Продолжительность : 43 м. 24 с.
Вид битрейта : Постоянный
Битрейт : 640 Кбит/сек
Каналы : 6 каналов
Расположение каналов : Front: L C R, Side: L R, LFE
Частота : 48,0 КГц
Частота кадров : 31,250 кадров/сек (1536 SPF)
Битовая глубина : 16 бит
Метод сжатия : С потерями
Размер потока : 199 Мбайт (6%)
Заголовок : Original@DD5.1 AC3 ,640 Kbps, 48.0 KHz, 6 ch
Язык : English
ServiceKind/String : Complete Main
Default : Нет
Forced : Нет

Текст #1
Идентификатор : 2
Формат : UTF-8
Идентификатор кодека : S_TEXT/UTF8
Идентификатор кодека/Информация : UTF-8 Plain Text
Продолжительность : 5 м. 9 с.
Битрейт : 15 бит/сек
ElementCount : 6
Размер потока : 590 байт (0%)
Заголовок : Rus-Надписи
Язык : Russian
Default : Да
Forced : Нет

Текст #2
Идентификатор : 3
Формат : UTF-8
Идентификатор кодека : S_TEXT/UTF8
Идентификатор кодека/Информация : UTF-8 Plain Text
Продолжительность : 42 м. 41 с.
Битрейт : 68 бит/сек
ElementCount : 755
Размер потока : 21,3 Кбайт (0%)
Заголовок : Original - SDH
Язык : English
Default : Нет
Forced : Нет

Текст #3
Идентификатор : 8
Формат : UTF-8
Идентификатор кодека : S_TEXT/UTF8
Идентификатор кодека/Информация : UTF-8 Plain Text
Продолжительность : 40 м. 48 с.
Битрейт : 99 бит/сек
ElementCount : 618
Размер потока : 29,6 Кбайт (0%)
Заголовок : Rus
Язык : Russian
Default : Нет
Forced : Нет

Меню
00:00:00.000 : en:Глава 01 / en:Глава 01 / en:Глава 01 / en:Глава 01 / en:Глава 01 / en:Глава 01 / en:Глава 01 / en:Глава 01






Внимание! Раздача пополняется по мере выхода новых серий!



Раздача ведётся путём добавления новых серий; при каждом добавлении создётся новый торрент.
Чтобы начать докачку новой серии, пользователям необходимо сделать следующее:
1. остановить скачивание,
2. удалить старый торрент у себя из клиента (старые серии удалять не надо),
3. скачать новый торрент и запустить его у себя в клиенте вместо старого, при этом указать клиенту путь в старую папку, куда и должно происходить скачивание новых серий.

Ваш клиент при этом должен произвести хеширование (проверку) старой папки (если не производит сам - помогите ему сделать это), и будет докачивать только те серии которых у вас ещё нет. Старые серии при этом не удаляются, а продолжают раздаваться!

Eсли вы уже удалили старые серии, то предотвратить повторную закачку старых серий можно, отжав галочку в соответсвующих местах при запуске нового торрента. По возможности, желательно не удалять старые серии как можно дольше, чтобы релизёр не столько продолжал раздавать старые серии, а смог сконцентрироваться на новых.

Совет для тех, кто не хочет ждать перехеширования:
Создайте ещё одну папку рядом с папкой сериала (рядом, а не в ней!!!). Каждую новую серию после удачной загрузки копируйте в новую папку так чтобы ваша основная папка всегда была пуста. Когда ваш новый торрент предложит вам закачать все файлы, выберете только последнюю. Для сидирования же укажите адрес новой папки.

Как закачать отдельный файл из торрента или докачать ранее пропущенные файлы торрента!

1. Открыть торрент
2. Снять галки с тех файлов торрента, которые мы не хотим закачивать. Оставляем только на нужных нам файлах (файле).
3. Нажать О.К.

В клиенте utorrent

Инструкция

1) Открыть торрент


2) Снять галки с тех файлов торрента, которые мы не хотим закачивать:

* либо вручную, снимая с каждого файла галку( скрин №1)
* либо, нажав кнопку "Снять метки (Select None)", сняв сразу со всех файлов(скрин №2)
№1

№2

Оставляем только на нужных нам файлах (файле).

3)Нажать О.К






Внимание!!! 19.01. 2018. РАЗДАЧА ОБНОВЛЕНА. ДОБАВЛЕНА 12 СЕРИЯ. ОБНОВИТЕ ТОРЕНТ ФАЙЛ. ПРИЯТНОГО ПРОСМОТРА .

Релиз от: Nikolai.Baranov & PIRATIYA










Скачать Хороший.доктор.The.Good.Doctor.[2017].(Сезон.1.Серия.1-.12.из.18).(Сет.Гордон).[.Драма.медицина.WEB-DLRip][1080p][HEVC.][LostFilm+NewStudiо+BaibaKo+Eng]+[Subs.ENG+Rus].torrent без регистрации
Золото ЗОЛОТАЯ РАЗДАЧА! СКАЧАННОЕ НЕ ЗАСЧИТЫВАЕТСЯ! Золото
Дата: Зарегистрирован   [ Тип: внешний ] Как тут cкачать?
MAGNET ссылка
MAGNET ссылка


Скачать .torrent

110 KB

Статус: проверено DHT
Скачан: торрент - 45 раз, раздача полностью - 0 раз
Размер: 41,6 GB
Оценка:  - (Голосов: 0)
Поблагодарили: 0
Поделиться ссылкой на эту раздачу с друзьями:
В контактеFacebookОдноклассникиTwitterLivejournalМой МирLiveinternet
 

 
Показать сообщения:    


Вы не можете начинать темы
Вы не можете отвечать на сообщения
Вы не можете редактировать свои сообщения
Вы не можете удалять свои сообщения
Вы не можете голосовать в опросах
Вы не можете прикреплять файлы к сообщениям
Вы можете скачивать файлы