Loading...
Error

Скачать Бегущий по лезвию 2049 / Blade Runner 2049 (Дэни Вильнёв) [2017, драма, детектив, научная фантастика, триллер, BDRip] [1080p] [Dub (лицензия)]+[Sub Rus] торрент без регистрации

Статистика раздачи
Размер:  9,89 GB   |    Скачан:  610 раз

Полного источника не было: 21 минута

 
 
 
Автор Сообщение

МихаНЕзатор

[] 

Информация о фильме
Название: Бегущий по лезвию 2049
Оригинальное название: Blade Runner 2049
Год выхода: 2017
Жанр: Фантастика, триллер, драма, детектив
Режиссер: Дэни Вильнёв

В ролях: Райан Гослинг, Харрисон Форд, Ана де Армас, Джаред Лето, Сильвия Хукс, Дэйв Батиста, Робин Райт, Маккензи Дэвис, Карла Юри, Ленни Джеймс и другие

О фильме: В недалеком будущем мир населен людьми и репликантами, созданными выполнять самую тяжелую работу. Работа офицера полиции Кей — держать репликантов под контролем в условиях нарастающего напряжения… Пока он случайно не становится обладателем секретной информации, которая ставит под угрозу существование всего человечества. Желая найти ключ к разгадке, Кей решает разыскать Рика Декарда, бывшего офицера специального подразделения полиции Лос-Анджелеса, который бесследно исчез много лет назад...

Релиз от:


Страна: США, Великобритания, Канада, Венгрия
Студия: Sony, Columbia Pictures, Warner Bros, Alcon Entertainment
Продолжительность: 02:43:47
Перевод: Дублированный | Лицензия

Файл
Формат: MKV, BDRip 1080p
Видео: MPEG-4 AVC, 8000 Кбит/с, 1920x800
Aудио#1: [RUS] AC3 | 48 KHz | 5.1 (Front: L С R Side: L R) + LFE | ~640 kbps
Субтитры: русские форсированные (стилизованные, хардсаб), полные

АНОНСЫ ПОПУЛЯРНЫХ РАЗДАЧ


Торрент обновлён, улучшен видеоряд и звук!

Общее
Уникальный идентификатор : 218411811977805404135690461625548006353 (0xA45095BB5309C7F99A9FB9A4B90FE3D1)
Полное имя : H:Blade.Runner.2049.(2017).BDRip.1080p.MegaPeer.(qqss44).mkv
Формат : Matroska
Версия формата : Version 2
Размер файла : 9,89 Гбайт
Продолжительность : 2 ч. 43 м.
Общий поток : 8640 Кбит/сек
Название фильма : Blade.Runner.2049.(2017).BDRip.1080p.MegaPeer.(qqss44)
Дата кодирования : UTC 2018-01-05 10:58:51
Программа кодирования : mkvmerge v5.8.0 ('No Sleep / Pillow') built on Sep 2 2012 15:37:04
Библиотека кодирования : libebml v1.2.3 + libmatroska v1.3.0

Видео
Идентификатор : 1
Формат : AVC
Формат/Информация : Advanced Video Codec
Профиль формата : High@L4.1
Параметр CABAC формата : Да
Параметр ReFrames формата : 5 кадров
Идентификатор кодека : V_MPEG4/ISO/AVC
Продолжительность : 2 ч. 43 м.
Битрейт : 8000 Кбит/сек
Ширина : 1920 пикселей
Высота : 800 пикселей
Соотношение сторон : 2,40:1
Режим частоты кадров : Постоянный
Частота кадров : 23,976 (24000/1001) кадра/сек
Цветовое пространство : YUV
Субдискретизация насыщенности : 4:2:0
Битовая глубина : 8 бит
Тип развёртки : Прогрессивная
Бит/(Пиксели*Кадры) : 0.217
Размер потока : 8,96 Гбайт (91%)
Библиотека кодирования : x264 core 152 r2851kMod ba24899
Настройки программы : cabac=1 / ref=5 / deblock=1:-3:-3 / analyse=0x3:0x113 / me=umh / subme=11 / psy=1 / fade_compensate=0.00 / psy_rd=1.00:0.00 / mixed_ref=1 / me_range=32 / chroma_me=1 / trellis=2 / 8x8dct=1 / cqm=0 / deadzone=21,11 / fast_pskip=0 / chroma_qp_offset=-2 / threads=12 / lookahead_threads=2 / sliced_threads=0 / nr=0 / decimate=0 / interlaced=0 / bluray_compat=0 / constrained_intra=0 / bframes=9 / b_pyramid=2 / b_adapt=2 / b_bias=0 / direct=3 / weightb=1 / open_gop=0 / weightp=2 / keyint=240 / keyint_min=23 / scenecut=40 / intra_refresh=0 / rc_lookahead=40 / rc=2pass / mbtree=0 / bitrate=8000 / ratetol=1.0 / qcomp=0.70 / qpmin=0 / qpmax=69 / qpstep=4 / cplxblur=20.0 / qblur=0.5 / vbv_maxrate=50000 / vbv_bufsize=62500 / nal_hrd=none / filler=0 / ip_ratio=1.40 / pb_ratio=1.30 / aq=3:0.70
Язык : English
Default : Да
Forced : Нет

Аудио
Идентификатор : 2
Формат : AC-3
Формат/Информация : Audio Coding 3
Расширение режима : CM (complete main)
Параметр Endianness формата : Big
Идентификатор кодека : A_AC3
Продолжительность : 2 ч. 43 м.
Вид битрейта : Постоянный
Битрейт : 640 Кбит/сек
Каналы : 6 каналов
Расположение каналов : Front: L C R, Side: L R, LFE
Частота : 48,0 КГц
Частота кадров : 31,250 кадров/сек (1536 spf)
Метод сжатия : С потерями
Размер потока : 750 Мбайт (7%)
Язык : Russian
Default : Да
Forced : Нет

Текст
Идентификатор : 3
Формат : UTF-8
Идентификатор кодека : S_TEXT/UTF8
Идентификатор кодека/Информация : UTF-8 Plain Text
Заголовок : FULL
Язык : Russian
Default : Нет
Forced : Нет

Меню
00:00:00.000 : en:00:00:00.000
00:12:36.172 : en:00:12:36.172
00:23:29.283 : en:00:23:29.283
00:37:00.885 : en:00:37:00.885
00:42:50.318 : en:00:42:50.318
00:49:24.503 : en:00:49:24.503
00:58:35.554 : en:00:58:35.554
01:04:10.680 : en:01:04:10.680
01:15:47.293 : en:01:15:47.293
01:25:12.482 : en:01:25:12.482
01:36:15.061 : en:01:36:15.061
01:50:55.107 : en:01:50:55.107
02:01:36.873 : en:02:01:36.873
02:08:40.379 : en:02:08:40.379
02:16:42.486 : en:02:16:42.486
02:27:46.733 : en:02:27:46.733



Скачать Бегущий.по.лезвию.2049.Blade.Runner.2049.(Дэни.Вильнёв).[2017.драма.детектив.научная.фантастика.триллер.BDRip].[1080p].[Dub.(лицензия)]+[Sub.Rus].torrent без регистрации
Золото ЗОЛОТАЯ РАЗДАЧА! СКАЧАННОЕ НЕ ЗАСЧИТЫВАЕТСЯ! Золото
Дата: Зарегистрирован   [ Тип: внутренний ] Как тут cкачать?
MAGNET ссылка
MAGNET ссылка


Скачать .torrent

50 KB

Статус: проверено DHT
Скачан: торрент - 610 раз, раздача полностью - 274 раз
Размер: 9,89 GB
Оценка:  4,8 (Голосов: 6)
Поблагодарили: 21
Поделиться ссылкой на эту раздачу с друзьями:
В контактеFacebookОдноклассникиTwitterLivejournalМой МирLiveinternet
 

 
Показать сообщения:    


Вы не можете начинать темы
Вы не можете отвечать на сообщения
Вы не можете редактировать свои сообщения
Вы не можете удалять свои сообщения
Вы не можете голосовать в опросах
Вы не можете прикреплять файлы к сообщениям
Вы можете скачивать файлы