Loading...
Error

Скачать Атлантида / Cold Skin (2017, ужасы, фантастика, триллер, приключения, BDRip] [1080p] [Dub (лицензия iTunes)]+[Eng] торрент без регистрации

Статистика раздачи
Размер:  7,28 GB   |    Скачан:  408 раз
Сидов:  5  [  82 KB/s  ]  
 
 
 
Автор Сообщение

МихаНЕзатор

[] 

Информация о фильме
Название: Атлантида
Оригинальное название: Cold Skin
Год выхода: 2017
Жанр: Ужасы, фантастика, триллер, приключения
Режиссер: Ксавье Жанс

В ролях: Рэй Стивенсон, Дэвид Оукс, Аура Гарридо, Уинслоу Иваки, Джон Бенфилд, Бен Темпле, Иван Гонсалес, Алехандро Род, Жюльен Блашке, Дамиан Монтесдеока

О фильме:
После длительного плавания молодой метеоролог Френд прибывает на затерянный в океане остров принять годичную вахту на метеостанции. На острове оказывается лишь суровый и немногословный смотритель маяка Грюнер. Френд довольно быстро понимает, что Грюнер что-то скрывает, старый метеоролог попал в какую-то передрягу, а остров кажется необитаемым только на первый взгляд.



Страна: Испания, Франция
Студия: Ink Connection, The
Продолжительность: 01:46:19
Перевод: Дублированный | iTunes

Качество: BDRip 1080p
Видео: MPEG-4 AVC, 1920x804, 8780 Kbit/s, 24.000 fps
Звук:
Аудио #01: 48 kHz, AC3, 5.1, 384 Kbps | Дублированный | iTunes | RUS |
Аудио #02: 48 kHz, AC3, 5.1, 640 Kbps | Оригинал | ENG |

АНОНСЫ ПОПУЛЯРНЫХ РАЗДАЧ


Торрент обновлён, улучшен видеоряд и звук!
General
Unique ID : 328667148062935173238301622888664174308 (0xF742FD7EFF535C1CDD76EFCA970C8EE4)
Complete name : C:Video111Cold.Skin.2018.BDRip.1080p.ExKinoRay.mkv
Format : Matroska
Format version : Version 4 / Version 2
File size : 7.28 GiB
Duration : 1 h 47 min
Overall bit rate : 9 711 kb/s
Movie name : Cold Skin 2017 from ExKinoRay
Encoded date : UTC 2018-02-09 09:49:11
Writing application : mkvmerge v20.0.0 ('I Am The Sun') 64-bit
Writing library : libebml v1.3.5 + libmatroska v1.4.8

Video
ID : 1
Format : AVC
Format/Info : Advanced Video Codec
Format profile : High@L4.1
Format settings : CABAC / 5 Ref Frames
Format settings, CABAC : Yes
Format settings, ReFrames : 5 frames
Codec ID : V_MPEG4/ISO/AVC
Duration : 1 h 46 min
Bit rate : 8 780 kb/s
Width : 1 920 pixels
Height : 804 pixels
Display aspect ratio : 2.40:1
Frame rate mode : Constant
Frame rate : 24.000 FPS
Color space : YUV
Chroma subsampling : 4:2:0
Bit depth : 8 bits
Scan type : Progressive
Bits/(Pixel*Frame) : 0.237
Stream size : 6.51 GiB (89%)
Writing library : x264 core 148 r2705 3f5ed56
Encoding settings : cabac=1 / ref=5 / deblock=1:-2:-2 / analyse=0x3:0x133 / me=umh / subme=11 / psy=1 / psy_rd=1.05:0.05 / mixed_ref=1 / me_range=32 / chroma_me=1 / trellis=2 / 8x8dct=1 / cqm=0 / deadzone=21,11 / fast_pskip=0 / chroma_qp_offset=-3 / threads=12 / lookahead_threads=2 / sliced_threads=0 / nr=0 / decimate=0 / interlaced=0 / bluray_compat=0 / constrained_intra=0 / bframes=8 / b_pyramid=2 / b_adapt=2 / b_bias=0 / direct=3 / weightb=1 / open_gop=0 / weightp=2 / keyint=240 / keyint_min=24 / scenecut=40 / intra_refresh=0 / rc_lookahead=50 / rc=2pass / mbtree=0 / bitrate=8780 / ratetol=1.0 / qcomp=0.60 / qpmin=0 / qpmax=69 / qpstep=4 / cplxblur=20.0 / qblur=0.5 / vbv_maxrate=50000 / vbv_bufsize=62500 / nal_hrd=none / filler=0 / ip_ratio=1.40 / pb_ratio=1.30 / aq=3:0.80
Language : English
Default : Yes
Forced : No

Audio #1
ID : 2
Format : AC-3
Format/Info : Audio Coding 3
Codec ID : A_AC3
Duration : 1 h 46 min
Bit rate mode : Constant
Bit rate : 384 kb/s
Channel(s) : 6 channels
Channel positions : Front: L C R, Side: L R, LFE
Sampling rate : 48.0 kHz
Frame rate : 31.250 FPS (1536 SPF)
Bit depth : 16 bits
Compression mode : Lossy
Stream size : 292 MiB (4%)
Title : iTunes
Language : Russian
Service kind : Complete Main
Default : Yes
Forced : No

Audio #2
ID : 3
Format : AC-3
Format/Info : Audio Coding 3
Codec ID : A_AC3
Duration : 1 h 47 min
Bit rate mode : Constant
Bit rate : 640 kb/s
Channel(s) : 6 channels
Channel positions : Front: L C R, Side: L R, LFE
Sampling rate : 48.0 kHz
Frame rate : 31.250 FPS (1536 SPF)
Bit depth : 16 bits
Compression mode : Lossy
Stream size : 491 MiB (7%)
Language : English
Service kind : Complete Main
Default : No
Forced : No

Menu
00:00:00.000 : :00:00:00.000
00:13:28.416 : :00:13:28.333
00:25:56.041 : :00:25:55.917
00:39:05.666 : :00:39:05.542
00:52:51.916 : :00:52:51.792
01:06:24.916 : :01:06:24.833
01:19:25.041 : :01:19:24.917
01:32:34.291 : :01:32:34.167



Скачать Атлантида.Cold.Skin.(2017.ужасы.фантастика.триллер.приключения.BDRip].[1080p].[Dub.(лицензия.iTunes)]+[Eng].torrent без регистрации
Золото ЗОЛОТАЯ РАЗДАЧА! СКАЧАННОЕ НЕ ЗАСЧИТЫВАЕТСЯ! Золото
Дата: Зарегистрирован   [ Тип: внутренний ] Как тут cкачать?
MAGNET ссылка
MAGNET ссылка


Скачать .torrent

37 KB

Статус: проверено DHT
Скачан: торрент - 408 раз, раздача полностью - 87 раз
Размер: 7,28 GB
Оценка:  5 (Голосов: 3)
Поблагодарили: 16
Поделиться ссылкой на эту раздачу с друзьями:
В контактеFacebookОдноклассникиTwitterLivejournalМой МирLiveinternet
 

 

bubarp

[] 

Фильм супер,смотрится легко!!!!!
 
Показать сообщения:    


Вы не можете начинать темы
Вы не можете отвечать на сообщения
Вы не можете редактировать свои сообщения
Вы не можете удалять свои сообщения
Вы не можете голосовать в опросах
Вы не можете прикреплять файлы к сообщениям
Вы можете скачивать файлы