Loading...
Error

Скачать Смертоносная земля / Killing Ground (Дэмиен Пауэр) [2016, ужасы, триллер, BDRip] [720р] [VO (GreenРай Studio)] торрент без регистрации

Статистика раздачи
Размер:  2,81 GB   |    Скачан:  58 раз
Сидов:  1  [  0 KB/s  ]  
 
 
 
Автор Сообщение

МихаНЕзатор

[] 

Информация о фильме
Наименование: Смертоносная земля
Оригинальное наименование: Killing Ground
Год выпуска: 2016
Произведено: Австралия, Hypergiant Films, Arcadia See
Категория: ужасы, триллер
Режиссер постановщик: Дэмиен Пауэр

В главных ролях: Харриет Дайер, Йен Медоуз, Тиэрни Коуплэнд, Аарон Педерсен, Мая Стенж, Стивен Хантер, Аарон Гленнэйн, Митци Рулманн, Эйрли Доддс, Джулиан Гарнер

О фильме: Сэм и Йен решили провести выходные в палатке у озера в лесу. Природа, тишина — красота! На месте парочка обнаруживает другую палатку и никого рядом. На следующий день тишина становится подозрительной, а когда посреди леса вдруг обнаруживается чумазый годовалый ребёнок, это уже повод для серьёзного беспокойства...

Релиз от:

ВНИМАНИЕ! Присутствует реклама 1XBet!

Файл
Качество: BDRip 720p
Видео данные: MKV, 1280x536 (2.40:1), 23.976 fps, 4000 Кбит/с
Аудио данные: AC3, 2 ch, 640 Кбит/с)
Перевод: Любительский многоголосый (GreenРай Studio)
Продолжительность: 01:29:24

АНОНСЫ ПОПУЛЯРНЫХ РАЗДАЧ

Состав дикторов: Кристина Филатова и Ильдор Ахмеджанов, Анна Кириленко
Руководитель проекта и координатор: Евгений Овчаренко
Организатор и координатор: Никита Марков
Пиар менеджер студии: Игорь Обухов
Техническая поддержка: Александр Методий
Релиз-группа: GreenРай Studio
General
Unique ID : 247752444514108476553871538827927511139 (0xBA63629A66E240278E2090918B186063)
Complete name : D:Смертоносная земляKilling.Ground.2016.P.BDRip.720p.mkv
Format : Matroska
Format version : Version 4 / Version 2
File size : 2.81 GiB
Duration : 1 h 29 min
Overall bit rate mode : Constant
Overall bit rate : 4 513 kb/s
Encoded date : UTC 2017-12-28 13:49:39
Writing application : mkvmerge v8.3.0 ('Over the Horizon') 64bit
Writing library : libebml v1.3.1 + libmatroska v1.4.2

Video
ID : 1
Format : AVC
Format/Info : Advanced Video Codec
Format profile : Main@L3.1
Format settings, CABAC : Yes
Format settings, ReFrames : 3 frames
Codec ID : V_MPEG4/ISO/AVC
Duration : 1 h 29 min
Bit rate mode : Constant
Bit rate : 4 000 kb/s
Width : 1 280 pixels
Height : 536 pixels
Display aspect ratio : 2.40:1
Frame rate mode : Constant
Frame rate : 23.976 (23976/1000) FPS
Standard : NTSC
Color space : YUV
Chroma subsampling : 4:2:0
Bit depth : 8 bits
Scan type : Progressive
Bits/(Pixel*Frame) : 0.243
Stream size : 2.41 GiB (86%)
Language : English
Default : Yes
Forced : No
Color range : Limited

Audio
ID : 2
Format : AC-3
Format/Info : Audio Coding 3
Mode extension : CM (complete main)
Format settings, Endianness : Big
Codec ID : A_AC3
Duration : 1 h 29 min
Bit rate mode : Constant
Bit rate : 640 kb/s
Channel(s) : 2 channels
Channel positions : Front: L R
Sampling rate : 48.0 kHz
Frame rate : 31.250 FPS (1536 spf)
Compression mode : Lossy
Stream size : 409 MiB (14%)
Default : Yes
Forced : No



Скачать Смертоносная.земля.Killing.Ground.(Дэмиен.Пауэр).[2016.ужасы.триллер.BDRip].[720р].[VO.(GreenРай.Studio)].torrent без регистрации
Золото ЗОЛОТАЯ РАЗДАЧА! СКАЧАННОЕ НЕ ЗАСЧИТЫВАЕТСЯ! Золото
Дата: Зарегистрирован   [ Тип: внутренний ] Как тут cкачать?
MAGNET ссылка
MAGNET ссылка


Скачать .torrent

15 KB

Статус: проверено DHT
Скачан: торрент - 58 раз, раздача полностью - 37 раз
Размер: 2,81 GB
Оценка:  5 (Голосов: 1)
Поблагодарили: 3
Поделиться ссылкой на эту раздачу с друзьями:
В контактеFacebookОдноклассникиTwitterLivejournalМой МирLiveinternet
 

 
Показать сообщения:    


Вы не можете начинать темы
Вы не можете отвечать на сообщения
Вы не можете редактировать свои сообщения
Вы не можете удалять свои сообщения
Вы не можете голосовать в опросах
Вы не можете прикреплять файлы к сообщениям
Вы можете скачивать файлы