Loading...
Error

Скачать Прощай, Кристофер Робин / Goodbye Christopher Robin (Саймон Кёртис) [2017, семейный, биография, история, WEB-DL] [1080p] [MVO (лицензия iTunes)]+[Eng] торрент без регистрации

Статистика раздачи
Размер:  4,41 GB   |    Скачан:  68 раз
Сидов:  14  [  1 KB/s  ]  
 
 
 
Автор Сообщение

МихаНЕзатор

[] 

Информация о фильме
Название: Прощай, Кристофер Робин
Оригинальное название: Goodbye Christopher Robin
Год выхода: 2017
Жанр: семейный, биография, история
Режиссер: Саймон Кёртис

В ролях: Донал Глисон, Марго Робби, Келли Макдоналд, Вики Пеппердин, Уилл Тилстон, Алекс Лоутер, Стивен Кэмпбелл, Мур, Ричард МакКейб, Джеральдин Сомервилль, Мосси Смит

О фильме: Картина расскажет о взаимоотношениях между А. А. Милном и его сыном Кристофером Робином, чьи игрушки вдохновили писателя на создание волшебного мира повестей о Винни-Пухе.



Страна: Великобритания
Студия: DJ Films, Fox Searchlight Pictures
Продолжительность: 01:47:28
Перевод: Профессиональный многоголосый | iTunes

Файл
Качество: WEB-DL 1080p
Видео: MPEG-4 AVC, 1920x1036, 5113 Kbit/s, 23.976 fps
Звук:
Аудио #01: 48 kHz, AC3, 5.1, 384 Kbps | iTunes | RUS |
Аудио #02: 48 kHz, AC3, 5.1, 384 Kbps | Оригинал | ENG |

АНОНСЫ ПОПУЛЯРНЫХ РАЗДАЧ
General
Unique ID : 222606562781984731425689230984467399333 (0xA77876E9FD46247D9E79D130754342A5)
Complete name : G:VideoSSDGoodbye Christopher Robin.2017.WEB-DL.1080p.ExKinoRay.mkv
Format : Matroska
Format version : Version 4 / Version 2
File size : 4.41 GiB
Duration : 1 h 47 min
Overall bit rate : 5 880 kb/s
Movie name : Goodbye Christopher Robin 2017 from ExKinoRay
Encoded date : UTC 2018-01-04 22:42:11
Writing application : mkvmerge v19.0.0 ('Brave Captain') 64-bit
Writing library : libebml v1.3.5 + libmatroska v1.4.8

Video
ID : 1
Format : AVC
Format/Info : Advanced Video Codec
Format profile : High@L4
Format settings : CABAC / 4 Ref Frames
Format settings, CABAC : Yes
Format settings, ReFrames : 4 frames
Codec ID : V_MPEG4/ISO/AVC
Duration : 1 h 47 min
Bit rate : 5 113 kb/s
Width : 1 920 pixels
Height : 1 036 pixels
Display aspect ratio : 1.85:1
Frame rate mode : Constant
Frame rate : 23.976 (24000/1001) FPS
Color space : YUV
Chroma subsampling : 4:2:0
Bit depth : 8 bits
Scan type : Progressive
Bits/(Pixel*Frame) : 0.107
Stream size : 3.84 GiB (87%)
Language : English
Default : Yes
Forced : No
Color range : Limited
Color primaries : BT.709
Transfer characteristics : BT.709
Matrix coefficients : BT.709

Audio #1
ID : 2
Format : AC-3
Format/Info : Audio Coding 3
Codec ID : A_AC3
Duration : 1 h 46 min
Bit rate mode : Constant
Bit rate : 384 kb/s
Channel(s) : 6 channels
Channel positions : Front: L C R, Side: L R, LFE
Sampling rate : 48.0 kHz
Frame rate : 31.250 FPS (1536 SPF)
Bit depth : 16 bits
Compression mode : Lossy
Stream size : 294 MiB (7%)
Title : iTunes
Language : Russian
Service kind : Complete Main
Default : Yes
Forced : No

Audio #2
ID : 3
Format : AC-3
Format/Info : Audio Coding 3
Codec ID : A_AC3
Duration : 1 h 46 min
Bit rate mode : Constant
Bit rate : 384 kb/s
Channel(s) : 6 channels
Channel positions : Front: L C R, Side: L R, LFE
Sampling rate : 48.0 kHz
Frame rate : 31.250 FPS (1536 SPF)
Bit depth : 16 bits
Compression mode : Lossy
Stream size : 294 MiB (7%)
Title : Original
Language : English
Service kind : Complete Main
Default : No
Forced : No

Menu
00:00:00.000 : en:1
00:04:03.952 : en:2
00:07:01.170 : en:3
00:10:32.631 : en:4
00:13:40.527 : en:5
00:16:48.590 : en:6
00:20:43.408 : en:7
00:25:44.792 : en:8
00:30:36.750 : en:9
00:35:25.580 : en:10
00:40:50.738 : en:11
00:48:22.106 : en:12
00:52:32.731 : en:13
00:57:53.593 : en:14
01:03:35.810 : en:15
01:07:38.511 : en:16
01:12:43.858 : en:17
01:18:55.729 : en:18
01:21:45.607 : en:19
01:25:16.651 : en:20
01:29:10.426 : en:21
01:32:27.915 : en:22
01:35:55.914 : en:23
01:41:03.263 : en:24



Скачать Прощай.Кристофер.Робин.Goodbye.Christopher.Robin.(Саймон.Кёртис).[2017.семейный.биография.история.WEB-DL].[1080p].[MVO.(лицензия.iTunes)]+[Eng].torrent без регистрации
Золото ЗОЛОТАЯ РАЗДАЧА! СКАЧАННОЕ НЕ ЗАСЧИТЫВАЕТСЯ! Золото
Дата: Зарегистрирован   [ Тип: внешний ] Как тут cкачать?
MAGNET ссылка
MAGNET ссылка


Скачать .torrent

23 KB

Статус: проверено DHT
Скачан: торрент - 68 раз, раздача полностью - 71 раз
Размер: 4,41 GB
Оценка:  - (Голосов: 0)
Поблагодарили: 2
Поделиться ссылкой на эту раздачу с друзьями:
В контактеFacebookОдноклассникиTwitterLivejournalМой МирLiveinternet
 

 
Показать сообщения:    


Вы не можете начинать темы
Вы не можете отвечать на сообщения
Вы не можете редактировать свои сообщения
Вы не можете удалять свои сообщения
Вы не можете голосовать в опросах
Вы не можете прикреплять файлы к сообщениям
Вы можете скачивать файлы