Loading...
Error

Скачать Легенда жемчуга Наги / Легенда о жемчужине русалок / Legend of the Naga Pearls / Jiao zhu zhuan (Леон Ян) [2017, фэнтези, боевик, мелодрама, комедия, приключения, WEBRip] [2160p] [MVO (Колобок и Duet_F)]+[Sub Chi] торрент без регистрации

Статистика раздачи
Размер:  4,86 GB   |    Скачан:  74 раза
Сидов:  1  [  0 KB/s  ]  
 
 
 
Автор Сообщение

МихаНЕзатор

[] 

Информация о фильме
Название: Легенда жемчуга Наги / Легенда о жемчужине русалок
Оригинальное название: Legend of the Naga Pearls / Jiao zhu zhuan
Год выхода: 2017
Жанр: фэнтези, боевик, мелодрама, комедия, приключения
Режиссер: Леон Ян

В ролях: Ван Далу (Даррен Ван), Чжан Тяньай (Кристал Чжан), Шэн Гуаньсэнь, Жэнь Дахуа, Ху Бин

О фильме: Много лет назад была война между людьми и крылатыми обитателями небес. Люди победили своих врагов, после чего изгнали их с материка и предали огню прекрасный город Уранополис. Последний наследник крылатых вождей однажды узнаёт способ уничтожить ненавистных людишек.



Релиз от: & Duet_F

Страна: Китай
Продолжительность: 01:48:04
Перевод: Любительский, многоголосый, закадровый (Студия "Колобок" и Duet_F, перевод с китайского: Unamarinka и Шао Лу [FSG#404], закадровый текст читали: den904, DeadSno [Колобок] и Duet_F)

Файл
Кодек: V_MPEG4/ISO/AVC
Качество: WEBRip 2160p
Видео: 3840x2160 (16:9), 23.810 FPS, 6115 kb/s
Звук: AC-3, 48.0 kHz, 2ch, 192 kb/s
Субтитры: китайские (хардсаб)

АНОНСЫ ПОПУЛЯРНЫХ РАЗДАЧ
General
Unique ID : 228786620553317101206601466633980132759 (0xAC1EB349796DF382A8699271933ABD97)
Complete name : Легенда о Жемчужине русалок.mkv
Format : Matroska
Format version : Version 4 / Version 2
File size : 4.86 GiB
Duration : 1 h 48 min
Overall bit rate : 6 435 kb/s
Encoded date : UTC 2017-12-24 20:38:37
Writing application : mkvmerge v6.2.0 ('Promised Land') built on Apr 28 2013 12:22:01
Writing library : libebml v1.3.0 + libmatroska v1.4.0

Video
ID : 1
Format : AVC
Format/Info : Advanced Video Codec
Format profile : High@L5.1
Format settings, CABAC : Yes
Format settings, RefFrames : 3 frames
Codec ID : V_MPEG4/ISO/AVC
Duration : 1 h 48 min
Bit rate : 6 115 kb/s
Width : 3 840 pixels
Height : 2 160 pixels
Display aspect ratio : 16:9
Frame rate mode : Constant
Frame rate : 23.810 FPS
Original frame rate : 24.000 FPS
Color space : YUV
Chroma subsampling : 4:2:0
Bit depth : 8 bits
Scan type : Progressive
Bits/(Pixel*Frame) : 0.031
Stream size : 4.62 GiB (95%)
Writing library : qiyi.com vtc-test
Default : Yes
Forced : No
Color range : Limited
Color primaries : BT.709
Transfer characteristics : BT.709
Matrix coefficients : BT.709

Audio
ID : 2
Format : AC-3
Format/Info : Audio Coding 3
Format settings, Endianness : Big
Codec ID : A_AC3
Duration : 1 h 48 min
Bit rate mode : Constant
Bit rate : 192 kb/s
Channel(s) : 2 channels
Channel positions : Front: L R
Sampling rate : 48.0 kHz
Frame rate : 31.250 FPS (1536 SPF)
Bit depth : 16 bits
Compression mode : Lossy
Delay relative to video : -83 ms
Stream size : 148 MiB (3%)
Service kind : Complete Main
Default : Yes
Forced : No



Скачать Легенда.жемчуга.Наги.Легенда.о.жемчужине.русалок.Legend.of.the.Naga.Pearls.Jiao.zhu.zhuan.(Леон.Ян).[2017.фэнтези.боевик.мелодрама.комедия.приключения.WEBRip].[2160p].[MVO.(Колобок.и.Duet_F)]+[Sub.Chi].torrent без регистрации
Золото ЗОЛОТАЯ РАЗДАЧА! СКАЧАННОЕ НЕ ЗАСЧИТЫВАЕТСЯ! Золото
Дата: Зарегистрирован   [ Тип: внутренний ] Как тут cкачать?
MAGNET ссылка
MAGNET ссылка


Скачать .torrent

25 KB

Статус: проверено DHT
Скачан: торрент - 74 раз, раздача полностью - 148 раз
Размер: 4,86 GB
Оценка:  - (Голосов: 0)
Поблагодарили: 2
Поделиться ссылкой на эту раздачу с друзьями:
В контактеFacebookОдноклассникиTwitterLivejournalМой МирLiveinternet
 

 
Показать сообщения:    


Вы не можете начинать темы
Вы не можете отвечать на сообщения
Вы не можете редактировать свои сообщения
Вы не можете удалять свои сообщения
Вы не можете голосовать в опросах
Вы не можете прикреплять файлы к сообщениям
Вы можете скачивать файлы