Loading...
Error

Скачать Иностранец / The Foreigner (Мартин Кэмпбелл) [2017, боевик, триллер, драма, криминал, детектив, BDRip] [1080p (60 fps)] [DUB (Лицензия iTunes)]+[Eng]+[Sub Eng] торрент без регистрации

Статистика раздачи
Размер:  14,73 GB   |    Скачан:  255 раз
Сидов:  1  [  0 KB/s  ]  
 
 
 
Автор Сообщение

МихаНЕзатор

[] 

Информация о фильме
Название: Иностранец
Оригинальное название: The Foreigner
Год выпуска: 2017
Страна: Великобритания, Китай, США
Жанр: боевик, триллер, драма, криминал, детектив
Режиссер: Мартин Кэмпбелл

В ролях: Джеки Чан (Quan Ngoc Minh), Пирс Броснан (Liam Hennessy), Майкл МакЭлхаттон (Jim Kavanagh), Лю Тао (Lam), Чарли Мерфи (Maggie / Sara McKay), Орла Брэйди (Mary Hennessy), Кэти Льюнг (Fan), Рэй Фиарон (Commander Richard Bromley), Руфус Джонс (Ian Wood), Марк Тэнди (Simpson), Джон Кронин (Denis Fisher), Каолан Бирн (McCormick)

Описание: Бывший спецагент, ветеран вьетнамской войны Цюань давно сложил оружие и завел мирную жизнь. Но после того, как в теракте прямо на глазах погибает его дочь-подросток, видя, что власти не спешат разыскивать преступников, Цюань сам начинает поиск убийцы. Он пойдет на все, чтобы совершить праведное возмездие...



MPAA: R - Лицам до 17 лет обязательно присутствие взрослого

Автор рипа: Tiberiumsun69

Перевод: Дубляж - [iTunes]
Субтитры: английские
Продолжительность: 01:53:52

Качество: BDRip 1080p | 60 fps
Формат: MKV
Видео: AVC, 1920x804 (2.40:1), High@L4.2, 16999 kbps, 59,940 fps, 0,184 bpp
Аудио №1: русский / AC3 / 5.1 / 48 kHz / 384 kbps / |Дубляж|
Аудио №2: английский / DTS / 5.1 / 48 kHz / 1509 kbps / 24 bit
Навигация по главам: есть

АНОНСЫ ПОПУЛЯРНЫХ РАЗДАЧ

General
Unique ID : 172894019095777870593272817871613411778 (0x82122D469440672A8E790AE8794941C2)
Complete name : С:Иностранец BDRip 1080p 60fps.mkv
Format : Matroska
Format version : Version 4 / Version 2
File size : 14.7 GiB
Duration : 1 h 53 min
Overall bit rate : 18.5 Mb/s
Movie name : The Foreigner (2017) by Tiberiumsun69
Encoded date : UTC 2018-01-01 06:18:30
Writing application : mkvmerge v18.0.0 ('Apricity') 64-bit
Writing library : libebml v1.3.5 + libmatroska v1.4.8

Video
ID : 1
Format : AVC
Format/Info : Advanced Video Codec
Format profile : High@L4.2
Format settings, CABAC : Yes
Format settings, ReFrames : 4 frames
Codec ID : V_MPEG4/ISO/AVC
Duration : 1 h 53 min
Bit rate mode : Constant
Bit rate : 17.0 Mb/s
Width : 1 920 pixels
Height : 804 pixels
Display aspect ratio : 2.40:1
Frame rate mode : Constant
Frame rate : 59.940 (60000/1001) FPS
Standard : NTSC
Color space : YUV
Chroma subsampling : 4:2:0
Bit depth : 8 bits
Scan type : Progressive
Bits/(Pixel*Frame) : 0.184
Stream size : 12.9 GiB (88%)
Language : English
Default : Yes
Forced : No
Color range : Limited
Color primaries : BT.709
Transfer characteristics : BT.709
Matrix coefficients : BT.709

Audio #1
ID : 2
Format : AC-3
Format/Info : Audio Coding 3
Mode extension : CM (complete main)
Format settings, Endianness : Big
Codec ID : A_AC3
Duration : 1 h 53 min
Bit rate mode : Constant
Bit rate : 384 kb/s
Channel(s) : 6 channels
Channel positions : Front: L C R, Side: L R, LFE
Sampling rate : 48.0 kHz
Frame rate : 31.250 FPS (1536 spf)
Compression mode : Lossy
Stream size : 313 MiB (2%)
Language : Russian
Default : Yes
Forced : No

Audio #2
ID : 3
Format : DTS
Format/Info : Digital Theater Systems
Mode : 16
Format settings, Endianness : Big
Codec ID : A_DTS
Duration : 1 h 53 min
Bit rate mode : Constant
Bit rate : 1 509 kb/s
Channel(s) : 6 channels
Channel positions : Front: L C R, Side: L R, LFE
Sampling rate : 48.0 kHz
Frame rate : 93.750 FPS (512 spf)
Bit depth : 24 bits
Compression mode : Lossy
Stream size : 1.20 GiB (8%)
Language : English
Default : No
Forced : No

Text
ID : 4
Format : UTF-8
Codec ID : S_TEXT/UTF8
Codec ID/Info : UTF-8 Plain Text
Language : English
Default : No
Forced : No

Menu
00:00:00.000 : en:00:00:00.000
00:08:19.541 : en:00:08:19.541
00:15:49.574 : en:00:15:49.574
00:21:47.765 : en:00:21:47.765
00:27:04.164 : en:00:27:04.164
00:32:09.511 : en:00:32:09.511
00:35:24.164 : en:00:35:24.164
00:38:30.934 : en:00:38:30.934
00:43:50.169 : en:00:43:50.169
00:47:38.189 : en:00:47:38.189
00:54:10.497 : en:00:54:10.497
01:01:42.324 : en:01:01:42.324
01:08:07.333 : en:01:08:07.333
01:14:14.033 : en:01:14:14.033
01:18:42.927 : en:01:18:42.927
01:23:26.877 : en:01:23:26.877
01:29:18.812 : en:01:29:18.812
01:38:55.012 : en:01:38:55.012
01:43:45.928 : en:01:43:45.928
01:47:09.298 : en:01:47:09.298



Скачать Иностранец.The.Foreigner.(Мартин.Кэмпбелл).[2017.боевик.триллер.драма.криминал.детектив.BDRip].[1080p.(60.fps)].[DUB.(Лицензия.iTunes)]+[Eng]+[Sub.Eng].torrent без регистрации
Золото ЗОЛОТАЯ РАЗДАЧА! СКАЧАННОЕ НЕ ЗАСЧИТЫВАЕТСЯ! Золото
Дата: Зарегистрирован   [ Тип: внутренний ] Как тут cкачать?
MAGNET ссылка
MAGNET ссылка


Скачать .torrent

75 KB

Статус: проверено DHT
Скачан: торрент - 255 раз, раздача полностью - 97 раз
Размер: 14,73 GB
Оценка:  - (Голосов: 0)
Поблагодарили: 1
Поделиться ссылкой на эту раздачу с друзьями:
В контактеFacebookОдноклассникиTwitterLivejournalМой МирLiveinternet
 

 
Показать сообщения:    


Вы не можете начинать темы
Вы не можете отвечать на сообщения
Вы не можете редактировать свои сообщения
Вы не можете удалять свои сообщения
Вы не можете голосовать в опросах
Вы не можете прикреплять файлы к сообщениям
Вы можете скачивать файлы