Loading...
Error

Скачать Тэд-путешественник и тайна царя Мидаса / Tadeo Jones 2: El secreto del Rey Midas (Давид Алонсо, Энрике Гато) [2017, мультфильм, комедия, приключения, BDRip] [1080p] [Dub (лицензия iTunes)]+[Eng] торрент без регистрации

Статистика раздачи
Размер:  7,88 GB   |    Скачан:  156 раз
Сидов:  2  [  0 KB/s  ]  
 
 
 
Автор Сообщение

МихаНЕзатор

[] 

Информация о фильме
Название: Тэд-путешественник и тайна царя Мидаса
Оригинальное название: Tadeo Jones 2: El secreto del Rey Midas
Год выхода: 2017
Жанр: мультфильм, комедия, приключения
Режиссер: Давид Алонсо, Энрике Гато

В ролях: Оскар Барберан, Мишель Хеннер, Адриана Угарте, Луис Посада, Мигель Анхель Хеннер, Хосе Корбачо, Росер Баталья, Рафаэль Калво, Давид Брау, Франческ Бельда

О фильме: Археолог-авантюрист и прирожденный охотник за сокровищами Тадео Джонс (Тревор Уайт) ввязывается в новые приключения, на этот раз отправляясь в Лас-Вегас. Там он мечтает своими глазами посмотреть на древний папирус, найденный его приятельницей — путешественницей Сарой (Мишель Хеннер). Этот папирус имеет непосредственное доказательство существования магического ожерелья короля Мидаса, с помощью которого он мог превратить любой предмет в золото. По приезду в Лас-Вегас Тадео обнаруживает, что его приятельница была похищена коварным Джеком Рэкхэмом, который планирует использовать папирус для своих корыстных целей.



Страна: Испания
Студия: Ikiru Films, Institut Català de les Empreses Culturals (ICEC)
Продолжительность: 01:24:58
Перевод: Дублированный | iTunes

Файл
Качество: BDRip 1080p
Видео: MPEG-4 AVC, 1920x816, 12.5 Mbit/s, 23.976 fps
Звук:
Аудио #01: 48 kHz, AC3, 5.1, 384 Kbps | Дублированный | iTunes | RUS |
Аудио #02: 48 kHz, AC3, 5.1, 384 Kbps | Оригинал | ENG |

АНОНСЫ ПОПУЛЯРНЫХ РАЗДАЧ
General
Unique ID : 299419318725314389166726370003080006562 (0xE142102CF707C9354D6CF5D32F0D4BA2)
Complete name : G:VideoSSDTad.2017.BDRip.1080p.mkv
Format : Matroska
Format version : Version 4 / Version 2
File size : 7.88 GiB
Duration : 1 h 24 min
Overall bit rate : 13.3 Mb/s
Encoded date : UTC 2018-01-03 22:04:35
Writing application : mkvmerge v19.0.0 ('Brave Captain') 64-bit
Writing library : libebml v1.3.5 + libmatroska v1.4.8

Video
ID : 1
Format : AVC
Format/Info : Advanced Video Codec
Format profile : High@L4.1
Format settings : CABAC / 5 Ref Frames
Format settings, CABAC : Yes
Format settings, ReFrames : 5 frames
Codec ID : V_MPEG4/ISO/AVC
Duration : 1 h 24 min
Bit rate : 12.5 Mb/s
Width : 1 920 pixels
Height : 816 pixels
Display aspect ratio : 2.35:1
Frame rate mode : Constant
Frame rate : 23.976 FPS
Color space : YUV
Chroma subsampling : 4:2:0
Bit depth : 8 bits
Scan type : Progressive
Bits/(Pixel*Frame) : 0.333
Stream size : 7.42 GiB (94%)
Writing library : x264 core 148 r2708 86b7198
Encoding settings : cabac=1 / ref=5 / deblock=1:-3:-3 / analyse=0x3:0x113 / me=umh / subme=11 / psy=1 / psy_rd=1.10:0.05 / mixed_ref=1 / me_range=24 / chroma_me=1 / trellis=2 / 8x8dct=1 / cqm=0 / deadzone=21,11 / fast_pskip=1 / chroma_qp_offset=-3 / threads=25 / lookahead_threads=6 / sliced_threads=0 / nr=0 / decimate=1 / interlaced=0 / bluray_compat=0 / constrained_intra=0 / bframes=10 / b_pyramid=2 / b_adapt=2 / b_bias=0 / direct=1 / weightb=1 / open_gop=0 / weightp=2 / keyint=240 / keyint_min=24 / scenecut=40 / intra_refresh=0 / rc_lookahead=100 / rc=2pass / mbtree=1 / bitrate=12500 / ratetol=1.0 / qcomp=0.60 / qpmin=0 / qpmax=69 / qpstep=4 / cplxblur=20.0 / qblur=0.5 / vbv_maxrate=62500 / vbv_bufsize=78125 / nal_hrd=none / filler=0 / ip_ratio=1.40 / aq=1:1.10
Language : English
Default : Yes
Forced : No
Color range : Limited
Color primaries : BT.709
Transfer characteristics : BT.709
Matrix coefficients : BT.709

Audio #1
ID : 2
Format : AC-3
Format/Info : Audio Coding 3
Codec ID : A_AC3
Duration : 1 h 24 min
Bit rate mode : Constant
Bit rate : 384 kb/s
Channel(s) : 6 channels
Channel positions : Front: L C R, Side: L R, LFE
Sampling rate : 48.0 kHz
Frame rate : 31.250 FPS (1536 SPF)
Bit depth : 16 bits
Compression mode : Lossy
Stream size : 233 MiB (3%)
Language : Russian
Service kind : Complete Main
Default : Yes
Forced : No

Audio #2
ID : 3
Format : AC-3
Format/Info : Audio Coding 3
Codec ID : A_AC3
Duration : 1 h 24 min
Bit rate mode : Constant
Bit rate : 384 kb/s
Channel(s) : 6 channels
Channel positions : Front: L C R, Side: L R, LFE
Sampling rate : 48.0 kHz
Frame rate : 31.250 FPS (1536 SPF)
Bit depth : 16 bits
Compression mode : Lossy
Stream size : 233 MiB (3%)
Language : English
Service kind : Complete Main
Default : No
Forced : No

Menu
00:00:00.000 : :Chapter 1
00:04:23.305 : :Chapter 2
00:10:52.485 : :Chapter 3
00:17:06.984 : :Chapter 4
00:22:32.184 : :Chapter 5
00:27:32.693 : :Chapter 6
00:33:01.396 : :Chapter 7
00:36:20.762 : :Chapter 8
00:43:11.380 : :Chapter 9
00:50:25.773 : :Chapter 10
00:55:26.907 : :Chapter 11
00:59:23.226 : :Chapter 12
01:05:02.857 : :Chapter 13
01:14:29.757 : :Chapter 14
01:17:34.817 : :Chapter 15
Релиз от: Автор релиза:
Подпишись на меня, кликни по картинке > :




Скачать Тэд-путешественник.и.тайна.царя.Мидаса.Tadeo.Jones.2.El.secreto.del.Rey.Midas.(Давид.Алонсо.Энрике.Гато).[2017.мультфильм.комедия.приключения.BDRip].[1080p].[Dub.(лицензия.iTunes)]+[Eng].torrent без регистрации
Золото ЗОЛОТАЯ РАЗДАЧА! СКАЧАННОЕ НЕ ЗАСЧИТЫВАЕТСЯ! Золото
Дата: Зарегистрирован   [ Тип: внутренний ] Как тут cкачать?
MAGNET ссылка
MAGNET ссылка


Скачать .torrent

40 KB

Статус: проверено DHT
Скачан: торрент - 156 раз, раздача полностью - 299 раз
Размер: 7,88 GB
Оценка:  5 (Голосов: 2)
Поблагодарили: 6
Поделиться ссылкой на эту раздачу с друзьями:
В контактеFacebookОдноклассникиTwitterLivejournalМой МирLiveinternet
 

 
Показать сообщения:    


Вы не можете начинать темы
Вы не можете отвечать на сообщения
Вы не можете редактировать свои сообщения
Вы не можете удалять свои сообщения
Вы не можете голосовать в опросах
Вы не можете прикреплять файлы к сообщениям
Вы можете скачивать файлы