Loading...
Error

Скачать Тэд-путешественник и тайна царя Мидаса / Tadeo Jones 2: El secreto del Rey Midas (Давид Алонсо, Энрике Гато) [2017, мультфильм, комедия, приключения, HDRip-AVC] [Dub (лицензия iTunes)] торрент без регистрации

Статистика раздачи
Размер:  1,46 GB   |    Скачан:  138 раз
Сидов:  1  [  0 KB/s  ]  
 
 
 
Автор Сообщение

МихаНЕзатор

[] 

✦ Тэд-путешественник и тайна царя Мидаса / Tadeo Jones 2: El secreto del Rey Midas ✦


Информация о фильме:
❖ Год выпуска: 2017
❖ Страна: Испания /Ikiru Films, Institut Català de les Empreses Culturals (ICEC)
❖ Жанр: Мультфильм, комедия, приключения
❖ Режиссер: Давид Алонсо, Энрике Гато

❖ В ролях: Оскар Барберан, Мишель Хеннер, Адриана Угарте, Луис Посада, Мигель Анхель Хеннер, Хосе Корбачо, Росер Баталья, Рафаэль Калво, Давид Брау, Франческ Бельда

Описание фильма:
Тэд, не самый удачливый и ловкий исследователь и путешественник, и его странноватые друзья, в числе которых настоящая мумия и смышленый пес Джефф, отправляются на розыски злобного богача Джека Рэкхема, похитившего Сару. Любимая Тэда обнаружила, где спрятаны сокровища легендарного царя Мидаса, и злодей надеется их заполучить. Но Тэд и его команда должны разрушить планы беспринципного богача и освободить Сару!

❖ Релиз от:
❖ Автор рипа: ProT1gR

❖ Перевод: Дублированный | [ iTunes]
❖ Продолжительность: 01:24:58

Технические данные файла:
❖ Качество: HDRip-AVC (Исх. BDRip 720p)
❖ Формат: MKV
❖ Видео: 1024x432 (2.40:1), 23.976 fps, MPEG-4 AVC ~ 2071 kbps (0.195 bit/pixel)
❖ Аудио: AC3, 48.0 KHz, 6 ch, 384 kbps
General
Unique ID : 253844771552615409273483418944770455078 (0xBEF8B9845CA3C9C9AB4E9C270700B626)
Complete name : Tadeo Jones 2 El secreto del Rey Midas.(2017).HDRip-AVC.[Kaztorrents].mkv
Format : Matroska
Format version : Version 2
File size : 1.46 GiB
Duration : 1 h 24 min
Overall bit rate : 2 457 kb/s
Encoded date : UTC 2018-01-05 10:37:56
Writing application : mkvmerge v7.8.0 ('River Man') 32bit built on Apr 3 2015 12:11:22
Writing library : libebml v1.3.1 + libmatroska v1.4.2

Video
ID : 1
Format : AVC
Format/Info : Advanced Video Codec
Format profile : High@L4
Format settings, CABAC : Yes
Format settings, ReFrames : 11 frames
Codec ID : V_MPEG4/ISO/AVC
Duration : 1 h 24 min
Bit rate : 2 071 kb/s
Width : 1 024 pixels
Height : 432 pixels
Display aspect ratio : 2.40:1
Frame rate mode : Constant
Frame rate : 23.976 (24000/1001) FPS
Color space : YUV
Chroma subsampling : 4:2:0
Bit depth : 8 bits
Scan type : Progressive
Bits/(Pixel*Frame) : 0.195
Stream size : 1.20 GiB (82%)
Writing library : x264 core 146 r2538 121396c
Encoding settings : cabac=1 / ref=11 / deblock=1:-3:-3 / analyse=0x3:0x113 / me=umh / subme=11 / psy=1 / psy_rd=1.00:0.00 / mixed_ref=1 / me_range=62 / chroma_me=1 / trellis=2 / 8x8dct=1 / cqm=0 / deadzone=21,11 / fast_pskip=0 / chroma_qp_offset=-2 / threads=6 / lookahead_threads=1 / sliced_threads=0 / nr=0 / decimate=0 / interlaced=0 / bluray_compat=0 / constrained_intra=0 / bframes=11 / b_pyramid=2 / b_adapt=2 / b_bias=0 / direct=3 / weightb=1 / open_gop=0 / weightp=2 / keyint=240 / keyint_min=23 / scenecut=40 / intra_refresh=0 / rc_lookahead=40 / rc=2pass / mbtree=0 / bitrate=2071 / ratetol=1.0 / qcomp=0.60 / qpmin=0 / qpmax=69 / qpstep=4 / cplxblur=20.0 / qblur=0.5 / vbv_maxrate=50000 / vbv_bufsize=62500 / nal_hrd=none / filler=0 / ip_ratio=1.40 / pb_ratio=1.30 / aq=1:1.10
Default : Yes
Forced : No

Audio
ID : 2
Format : AC-3
Format/Info : Audio Coding 3
Mode extension : CM (complete main)
Format settings, Endianness : Big
Codec ID : A_AC3
Duration : 1 h 24 min
Bit rate mode : Constant
Bit rate : 384 kb/s
Channel(s) : 6 channels
Channel positions : Front: L C R, Side: L R, LFE
Sampling rate : 48.0 kHz
Frame rate : 31.250 FPS (1536 spf)
Bit depth : 16 bits
Compression mode : Lossy
Stream size : 233 MiB (16%)
Default : Yes
Forced : No



Скачать Тэд-путешественник.и.тайна.царя.Мидаса.Tadeo.Jones.2.El.secreto.del.Rey.Midas.(Давид.Алонсо.Энрике.Гато).[2017.мультфильм.комедия.приключения.HDRip-AVC].[Dub.(лицензия.iTunes)].torrent без регистрации
Золото ЗОЛОТАЯ РАЗДАЧА! СКАЧАННОЕ НЕ ЗАСЧИТЫВАЕТСЯ! Золото
Дата: Зарегистрирован   [ Тип: внутренний ] Как тут cкачать?
MAGNET ссылка
MAGNET ссылка


Скачать .torrent

16 KB

Статус: проверено DHT
Скачан: торрент - 138 раз, раздача полностью - 224 раз
Размер: 1,46 GB
Оценка:  5 (Голосов: 1)
Поблагодарили: 10
Поделиться ссылкой на эту раздачу с друзьями:
В контактеFacebookОдноклассникиTwitterLivejournalМой МирLiveinternet
 

 
Показать сообщения:    


Вы не можете начинать темы
Вы не можете отвечать на сообщения
Вы не можете редактировать свои сообщения
Вы не можете удалять свои сообщения
Вы не можете голосовать в опросах
Вы не можете прикреплять файлы к сообщениям
Вы можете скачивать файлы