Loading...
Error

Скачать Очень плохие мамочки 2 / A Bad Moms Christmas (Лукас, Скотт Мур) [2017, комедия, приключения, BDRip] [1080p] [DUB (лицензия iTunes)]+[Eng] торрент без регистрации

Статистика раздачи
Размер:  9,52 GB   |    Скачан:  319 раз
Сидов:  6  [  0 KB/s  ]  
 
 
 
Автор Сообщение

leon030982

[] 

Очень плохие мамочки 2 / A Bad Moms Christmas


Страна: США Китай
Производство: The Robert Simonds Company, Huayi Brothers Media
Год выпуска: 2017
Жанр: комедия, приключения
Режиссеры: Джон Лукас, Скотт Мур
Авторы сценария: Джон Лукас, Скотт Мур

В ролях: Мила Кунис, Кристен Белл, Кэтрин Хан, Кристин Барански, Сьюзен Сарандон, Шерил Хайнс, Джей Эрнандес, Джастин Хартли

Описание: Большой дом, любящий мужчина, талантливые дети и карьера в гору. Мы уже взрослые и сами принимаем решения..? Как бы не так! Заботливые родители до сих пор не оставляют нас без «ценных советов», особенно, когда неожиданно нагрянут на Новый год. Правда, отрываться они тоже научат по-взрослому! Другими словами, праздник подкрался незаметно…



Продолжительность: 01:44:37
Перевод: Дубляж [iTunes]
Субтитры: нет

Файл
Формат: MKV (x264)
Качество: BDRip 1080p
Видео: 11.1 Mb/s, 1920x800
Звук#1: Russian: AC3, 384 kb/s (6 ch)
Звук#2: English: DTS, 1509 kb/s (6 ch)

АНОНСЫ ПОПУЛЯРНЫХ РАЗДАЧ


Торрент обновлён, улучшен видеоряд и звук!
General
Unique ID : 227515563517510944131148244457685019900 (0xAB29E7563671FA83B5FB9A001C686CFC)
Complete name : C:UsersВDownloadsVideo�43H.pL0x13.MaM04k1.2.2O17.D.BdRip.1O8Op.mkv
Format : Matroska
Format version : Version 2
File size : 9.52 GiB
Duration : 1 h 44 min
Overall bit rate : 13.0 Mb/s
Encoded date : UTC 2018-01-29 21:55:11
Writing application : mkvmerge v8.3.0 ('Over the Horizon') 64bit
Writing library : libebml v1.3.1 + libmatroska v1.4.2

Video
ID : 1
Format : AVC
Format/Info : Advanced Video Codec
Format profile : High@L4.1
Format settings, CABAC : Yes
Format settings, ReFrames : 4 frames
Codec ID : V_MPEG4/ISO/AVC
Duration : 1 h 44 min
Bit rate : 11.1 Mb/s
Width : 1 920 pixels
Height : 800 pixels
Display aspect ratio : 2.40:1
Frame rate mode : Constant
Frame rate : 23.976 (24000/1001) FPS
Color space : YUV
Chroma subsampling : 4:2:0
Bit depth : 8 bits
Scan type : Progressive
Bits/(Pixel*Frame) : 0.302
Stream size : 8.13 GiB (85%)
Writing library : x264 core 149 r2771+45 509cceb 7mod [8-bit@all X86_64]
Encoding settings : cabac=1 / ref=4 / deblock=1:-3:-3 / analyse=0x3:0x113 / me=umh / subme=10 / psy=1 / fade_compensate=0.00 / psy_rd=0.90:0.10 / mixed_ref=1 / me_range=48 / chroma_me=1 / trellis=2 / 8x8dct=1 / cqm=0 / deadzone=21,11 / fast_pskip=0 / chroma_qp_offset=-2 / threads=12 / lookahead_threads=2 / sliced_threads=0 / nr=0 / decimate=1 / interlaced=0 / bluray_compat=0 / constrained_intra=0 / fgo=0 / bframes=8 / b_pyramid=2 / b_adapt=2 / b_bias=0 / direct=3 / weightb=1 / open_gop=0 / weightp=2 / keyint=250 / keyint_min=23 / scenecut=40 / intra_refresh=0 / rc_lookahead=40 / rc=crf / mbtree=0 / crf=19.0000 / qcomp=0.70 / qpmin=0:0:0 / qpmax=69:69:69 / qpstep=4 / vbv_maxrate=35000 / vbv_bufsize=35000 / crf_max=0.0 / nal_hrd=none / filler=0 / ip_ratio=1.40 / pb_ratio=1.30 / aq=3:1.00 / aq-sensitivity=10.00 / aq-factor=1.00:1.00:1.00 / aq2=0 / aq3=2:[0.50:0.50]:[0.50:0.50]:[0.50:0.50]:[0.50:0.50] / aq3-sensitivity=10.00 / aq3-factor=[1.00:1.00]:[1.00:1.00]:[1.00:1.00] / aq3-boundary=192:64:24
Language : English
Default : Yes
Forced : No
Color range : Limited
Matrix coefficients : BT.709

Audio #1
ID : 2
Format : AC-3
Format/Info : Audio Coding 3
Mode extension : CM (complete main)
Format settings, Endianness : Big
Codec ID : A_AC3
Duration : 1 h 44 min
Bit rate mode : Constant
Bit rate : 384 kb/s
Channel(s) : 6 channels
Channel positions : Front: L C R, Side: L R, LFE
Sampling rate : 48.0 kHz
Frame rate : 31.250 FPS (1536 spf)
Bit depth : 16 bits
Compression mode : Lossy
Stream size : 287 MiB (3%)
Language : Russian
Default : Yes
Forced : No

Audio #2
ID : 3
Format : DTS
Format/Info : Digital Theater Systems
Mode : 16
Format settings, Endianness : Big
Codec ID : A_DTS
Duration : 1 h 44 min
Bit rate mode : Constant
Bit rate : 1 509 kb/s
Channel(s) : 6 channels
Channel positions : Front: L C R, Side: L R, LFE
Sampling rate : 48.0 kHz
Frame rate : 93.750 FPS (512 spf)
Bit depth : 24 bits
Compression mode : Lossy
Stream size : 1.10 GiB (12%)
Language : English
Default : No
Forced : No



Скачать Очень.плохие.мамочки.2.A.Bad.Moms.Christmas.(Лукас.Скотт.Мур).[2017.комедия.приключения.BDRip].[1080p].[DUB.(лицензия.iTunes)]+[Eng].torrent без регистрации
Золото ЗОЛОТАЯ РАЗДАЧА! СКАЧАННОЕ НЕ ЗАСЧИТЫВАЕТСЯ! Золото
Дата: Зарегистрирован   [ Тип: внешний ] Как тут cкачать?
MAGNET ссылка
MAGNET ссылка


Скачать .torrent

25 KB

Статус: проверено DHT
Скачан: торрент - 319 раз, раздача полностью - 137 раз
Размер: 9,52 GB
Оценка:  5 (Голосов: 3)
Поблагодарили: 15
Поделиться ссылкой на эту раздачу с друзьями:
В контактеFacebookОдноклассникиTwitterLivejournalМой МирLiveinternet
 

 
Показать сообщения:    


Вы не можете начинать темы
Вы не можете отвечать на сообщения
Вы не можете редактировать свои сообщения
Вы не можете удалять свои сообщения
Вы не можете голосовать в опросах
Вы не можете прикреплять файлы к сообщениям
Вы можете скачивать файлы