Loading...
Error

Скачать Плохая дочь (01-04 из 04) (Александр Кананович) [2017, мелодрама, WEB-DLRip] [1080p] торрент без регистрации

Статистика раздачи
Размер:  6,92 GB   |    Скачан:  21 раз
Сидов:  21  [  0 KB/s  ]   Личеров:  1  [  0 KB/s  ]  
 
 
 
Автор Сообщение

МихаНЕзатор

[] 

Информация о фильме
Название: Плохая дочь
Год выхода: 2017
Жанр: Мелодрама
Режиссер: Александр Кананович

В ролях: Дана Абызова, Вячеслав Дробинков, Наталия Курдюбова, Егор Баринов, Вячеслав Чепурченко, Юлия Подозёрова, Евгения Хомжукова, Марина Карабанова, Елизавета Кочеткова, Валентина Светлова, Юрий Ваксман, Светлана Асафьева, Дмитрий Гуляев, Ольга Соловьева, Андрей Зубков, Валерий Кириллов, Ирина Климушкина, Наталья Кучеренко, Дмитрий Лавров, Николай Лавров, Михаил Левченко, Анна Масальская, Сергей Перепечко, Дмитрий Соколов, Ирина Туманцева, Сергей Цепов, Константин Ширшов, Роман Шуников

О фильме: Саша из тех девушек, что расписывают свою жизнь на годы вперед. Скоро она доучится на хирурга в мединституте, затем получит хорошую работу, о которой уже похлопотали родители, а главное – выйдет замуж. Все известно наперед, остается только наслаждаться всеми радостями юности. Но судьба всегда может внести свои коррективы в самый продуманный план. От родственников из деревни приходит печальное известие: умерла тетка Саши, и трое ее детей остались сиротами. Чуткая Саша не может оставаться безучастной в такой ситуации. Несмотря на протесты родителей, девушка принимает решение отложить все дела и отправиться в деревню. Здесь и ее медицинская профессия окажется полезной: она будет помогать местным одиноким старикам. И хотя в глуши столичной девушке придется тяжело, эта поездка станет отличной возможностью проявить себя, встретить новых друзей и, конечно, найти настоящую любовь. По словам Даны Абызовой, исполнительницы главной роли в сериале, характер ее героини Саши еще раз подтверждает, что врачи – это исключительные люди. Съемки, проходившие в Ярославской области в январе 2017 года, потребовали от актеров терпения: многие сцены снимались на улице, где стоял невыносимый холод.

Релиз от:
Silverok

Страна: Россия
Студия: ООО «Продюсерская кинокомпания «Киномир»
Продолжительность: 4 х ~ 00:46:00
Перевод: Не требуется

Файл
Кодек: h.264
Качество: WEB-DLRip 1080p
Видео: MPEG-4 AVC, ~ 5120 Кбит/с, 1920x1080, 25,000 кадр/с
Звук: Русский (AC3, 2 ch, 256 Кбит/с)
Субтитры: Нет

АНОНСЫ ПОПУЛЯРНЫХ РАЗДАЧ
General
Unique ID : 247390573590685942843469872999725909329 (0xBA1DB0FD36DC782A88BDF5E61A41C551)
Complete name : D:uTorrentPlohaja.doch.2017.WEB-DLRip.1080pPlohaja.doch.(01.iz.04).2017.WEB-DLRip.1080p.MediaClub.mkv
Format : Matroska
Format version : Version 4 / Version 2
File size : 1.68 GiB
Duration : 44 min 48 s
Overall bit rate : 5 374 kb/s
Encoded date : UTC 2018-01-04 13:38:07
Writing application : mkvmerge v17.0.0 ('Be Ur Friend') 64-bit
Writing library : libebml v1.3.5 + libmatroska v1.4.8

Video
ID : 1
Format : AVC
Format/Info : Advanced Video Codec
Format profile : High@L4
Format settings : CABAC / 4 Ref Frames
Format settings, CABAC : Yes
Format settings, RefFrames : 4 frames
Codec ID : V_MPEG4/ISO/AVC
Duration : 44 min 48 s
Bit rate : 5 120 kb/s
Width : 1 920 pixels
Height : 1 080 pixels
Display aspect ratio : 16:9
Frame rate mode : Constant
Frame rate : 25.000 FPS
Color space : YUV
Chroma subsampling : 4:2:0
Bit depth : 8 bits
Scan type : Progressive
Bits/(Pixel*Frame) : 0.099
Stream size : 1.60 GiB (95%)
Title : WEB-DLRip by Silverok
Writing library : x264 core 142
Encoding settings : cabac=1 / ref=3 / deblock=1:0:0 / analyse=0x3:0x113 / me=hex / subme=7 / psy=1 / psy_rd=1.00:0.00 / mixed_ref=1 / me_range=16 / chroma_me=1 / trellis=1 / 8x8dct=1 / cqm=0 / deadzone=21,11 / fast_pskip=1 / chroma_qp_offset=-2 / threads=48 / lookahead_threads=8 / sliced_threads=0 / nr=0 / decimate=1 / interlaced=0 / bluray_compat=0 / constrained_intra=0 / bframes=6 / b_pyramid=2 / b_adapt=1 / b_bias=0 / direct=1 / weightb=1 / open_gop=0 / weightp=2 / keyint=50 / keyint_min=26 / scenecut=0 / intra_refresh=0 / rc_lookahead=40 / rc=2pass / mbtree=1 / bitrate=5120 / ratetol=1.0 / qcomp=0.60 / qpmin=0 / qpmax=69 / qpstep=4 / cplxblur=20.0 / qblur=0.5 / vbv_maxrate=7680 / vbv_bufsize=20480 / nal_hrd=none / filler=0 / ip_ratio=1.40 / aq=1:1.00
Default : Yes
Forced : No

Audio
ID : 2
Format : AC-3
Format/Info : Audio Coding 3
Codec ID : A_AC3
Duration : 44 min 48 s
Bit rate mode : Constant
Bit rate : 256 kb/s
Channel(s) : 2 channels
Channel positions : Front: L R
Sampling rate : 48.0 kHz
Frame rate : 31.250 FPS (1536 SPF)
Bit depth : 16 bits
Compression mode : Lossy
Stream size : 82.0 MiB (5%)
Language : Russian
Service kind : Complete Main
Default : Yes
Forced : No



Скачать Плохая.дочь.(01-04.из.04).(Александр.Кананович).[2017.мелодрама.WEB-DLRip].[1080p].torrent без регистрации
Золото ЗОЛОТАЯ РАЗДАЧА! СКАЧАННОЕ НЕ ЗАСЧИТЫВАЕТСЯ! Золото
Дата: Зарегистрирован   [ Тип: внешний ] Как тут cкачать?
MAGNET ссылка
MAGNET ссылка


Скачать .torrent

19 KB

Статус: проверено DHT
Скачан: торрент - 21 раз, раздача полностью - 10 раз
Размер: 6,92 GB
Оценка:  - (Голосов: 0)
Поблагодарили: 0
Поделиться ссылкой на эту раздачу с друзьями:
В контактеFacebookОдноклассникиTwitterLivejournalМой МирLiveinternet
 

 
Показать сообщения:    


Вы не можете начинать темы
Вы не можете отвечать на сообщения
Вы не можете редактировать свои сообщения
Вы не можете удалять свои сообщения
Вы не можете голосовать в опросах
Вы не можете прикреплять файлы к сообщениям
Вы можете скачивать файлы