Loading...
Error

Скачать Слишком красивая жена (01-02 из 02) (Сергей Мезенцев) [2013, мелодрама, WEB-DLRip] [1080p] торрент без регистрации

Статистика раздачи
Размер:  6,81 GB   |    Скачан:  82 раза
Сидов:  1  [  0 KB/s  ]  
 
 
 
Автор Сообщение

МихаНЕзатор

[] 

Информация о фильме
Название: Слишком красивая жена
Год выхода: 2013
Жанр: Мелодрама
Режиссер: Сергей Мезенцев

В ролях: Мария Куликова, Виталий Кудрявцев, Дмитрий Щербина, Елена Оболенская, Юрий Шлыков, Никита Юранов, Софья Лебедева, Александр Шам, Александр Взметнев, Наталья Третьякова

О фильме: Семья Протасовых: учитель литературы Гарик, его жена, врач-педиатр Лена, и юная дочь Аня — ведут скромную жизнь в маленьком городке. Аня профессионально занимается балетом, и после окончания школы ее приглашают в знаменитую танцевальную студию в Москве. Ради карьеры дочери Протасовы всей семьёй переезжают в столицу. Но московская жизнь оказывается вовсе не сладкой. Опытный учитель Гарик вынужден работать сторожем, Лена — медсестрой, а Аню новые коллеги встречают враждебно. Но главная опасность приходит с неожиданной стороны: сосед-миллионер Мареев очаровывается красавицей-Леной и во что бы то ни стало намерен добиться ее любви…

Релиз от:
Silverok

Страна: Россия
Студия: Кинокомпания Русское
Продолжительность: 2 х ~ 01:30:00
Перевод: Не требуется

Файл
Кодек: h.264
Качество: WEB-DLRip 1080p
Видео: MPEG-4 AVC, ~ 5120 Кбит/с, 1920x1080, 25,000 кадр/с
Звук: Русский (AC3, 2 ch, 256 Кбит/с)
Субтитры: Нет
АНОНСЫ ПОПУЛЯРНЫХ РАЗДАЧ
General
Unique ID : 241193150454730474967671778486737448001 (0xB5741C700362850FA0821570FEB82C41)
Complete name : D:uTorrentSlishkom.krasivaja.zhena.2013.WEB-DLRip.1080pSlishkom.krasivaja.zhena.(01.iz.02).2013.WEB-DLRip.1080p.MediaClub.mkv
Format : Matroska
Format version : Version 4 / Version 2
File size : 3.38 GiB
Duration : 1 h 30 min
Overall bit rate : 5 370 kb/s
Encoded date : UTC 2018-01-03 21:14:54
Writing application : mkvmerge v17.0.0 ('Be Ur Friend') 64-bit
Writing library : libebml v1.3.5 + libmatroska v1.4.8

Video
ID : 1
Format : AVC
Format/Info : Advanced Video Codec
Format profile : High@L4
Format settings : CABAC / 4 Ref Frames
Format settings, CABAC : Yes
Format settings, RefFrames : 4 frames
Codec ID : V_MPEG4/ISO/AVC
Duration : 1 h 30 min
Bit rate : 5 120 kb/s
Width : 1 920 pixels
Height : 1 080 pixels
Display aspect ratio : 16:9
Frame rate mode : Constant
Frame rate : 25.000 FPS
Color space : YUV
Chroma subsampling : 4:2:0
Bit depth : 8 bits
Scan type : Progressive
Bits/(Pixel*Frame) : 0.099
Stream size : 3.22 GiB (95%)
Title : WEB-DLRip by Silverok
Writing library : x264 core 142
Encoding settings : cabac=1 / ref=3 / deblock=1:0:0 / analyse=0x3:0x113 / me=hex / subme=7 / psy=1 / psy_rd=1.00:0.00 / mixed_ref=1 / me_range=16 / chroma_me=1 / trellis=1 / 8x8dct=1 / cqm=0 / deadzone=21,11 / fast_pskip=1 / chroma_qp_offset=-2 / threads=84 / lookahead_threads=8 / sliced_threads=0 / nr=0 / decimate=1 / interlaced=0 / bluray_compat=0 / constrained_intra=0 / bframes=6 / b_pyramid=2 / b_adapt=1 / b_bias=0 / direct=1 / weightb=1 / open_gop=0 / weightp=2 / keyint=50 / keyint_min=26 / scenecut=0 / intra_refresh=0 / rc_lookahead=40 / rc=2pass / mbtree=1 / bitrate=5120 / ratetol=1.0 / qcomp=0.60 / qpmin=0 / qpmax=69 / qpstep=4 / cplxblur=20.0 / qblur=0.5 / vbv_maxrate=7680 / vbv_bufsize=20480 / nal_hrd=none / filler=0 / ip_ratio=1.40 / aq=1:1.00
Default : Yes
Forced : No

Audio
ID : 2
Format : AC-3
Format/Info : Audio Coding 3
Codec ID : A_AC3
Duration : 1 h 30 min
Bit rate mode : Constant
Bit rate : 256 kb/s
Channel(s) : 2 channels
Channel positions : Front: L R
Sampling rate : 48.0 kHz
Frame rate : 31.250 FPS (1536 SPF)
Bit depth : 16 bits
Compression mode : Lossy
Stream size : 165 MiB (5%)
Language : Russian
Service kind : Complete Main
Default : Yes
Forced : No



Скачать Слишком.красивая.жена.(01-02.из.02).(Сергей.Мезенцев).[2013.мелодрама.WEB-DLRip].[1080p].torrent без регистрации
Золото ЗОЛОТАЯ РАЗДАЧА! СКАЧАННОЕ НЕ ЗАСЧИТЫВАЕТСЯ! Золото
Дата: Зарегистрирован   [ Тип: внутренний ] Как тут cкачать?
MAGNET ссылка
MAGNET ссылка


Скачать .torrent

18 KB

Статус: проверено DHT
Скачан: торрент - 82 раз, раздача полностью - 15 раз
Размер: 6,81 GB
Оценка:  - (Голосов: 0)
Поблагодарили: 0
Поделиться ссылкой на эту раздачу с друзьями:
В контактеFacebookОдноклассникиTwitterLivejournalМой МирLiveinternet
 

 
Показать сообщения:    


Вы не можете начинать темы
Вы не можете отвечать на сообщения
Вы не можете редактировать свои сообщения
Вы не можете удалять свои сообщения
Вы не можете голосовать в опросах
Вы не можете прикреплять файлы к сообщениям
Вы можете скачивать файлы