Loading...
Error

Скачать Пираты Сомали / The Pirates of Somalia (Брайан Бакли) [2017, драма, биография, WEB-DL] [1080р] [MVO (Синема УС)]+[Eng] торрент без регистрации

Статистика раздачи
Размер:  4,19 GB   |    Скачан:  97 раз
Сидов:  13  [  0,8 KB/s  ]  
 
 
 
Автор Сообщение

МихаНЕзатор

[] 

Пираты Сомали / The Pirates of Somalia


Страна: Сомали Кения Судан ЮАР США
Производство: BCDF Pictures, Hungry Man, Kalahari Pictures
Год выпуска: 2017
Жанр: драма, биография
Режиссер: Брайан Бакли
Автор сценария: Брайан Бакли

В ролях: Аль Пачино, Эван Питерс, Мелани Гриффит, Баркхад Абди, Расселл Познер, Корал Пенья, Киана Мадани, Филип Эттинджер, Эйдан Уайток

Описание: В 2008 году журналист-новобранец Джей Бахадур формирует полусырой план по внедрению себя в банду пиратов Сомали. В конечном счёте он добивается своего и первым смотрит изнутри на то, кто такие эти люди, как они живут, и что за силы ими управляют...

Дата премьеры (мир): 27 апреля 2017



Благодарность за аудиодорожку: Selena_a

Продолжительность: 01:57:41
Перевод: Любительский (многоголосый, закадровый) | Синема УС
Субтитры: нет

Качество: WEB-DL 1080р
Формат: МКV
Видео кодек: AVC
Аудио кодек: АС3
Видео: 1912x792 (2.40:1), 23.976 fps, MPEG-4 AVC ~4 523 kbps avg
Аудио №1: 48.0 kHz, AC3 Dolby Digital, 2/0 (L,R) ch, ~192 kbps | RUS | MVO
Аудио №2: 48.0 kHz, AC3 Dolby Digital, 3/2 (L,C,R,l,r) + LFE ch, ~384 kbps | ENG

АНОНСЫ ПОПУЛЯРНЫХ РАЗДАЧ
General
Уникальный идентификатор : 191890591008655472082513938222348031330 (0x905CC89539462358872A8DD91F94D562)
Полное имя : The Pirates of Somalia.2017.WEB-DL 1080p.mkv
Формат : Matroska
Версия формата : Version 4 / Version 2
Размер файла : 4,19 Гбайт
Продолжительность : 1 ч. 57 м.
Общий поток : 5101 Кбит/сек
Дата кодирования : UTC 2018-01-01 19:51:48
Программа кодирования : mkvmerge v13.0.0 ('The Juggler') 64bit
Библиотека кодирования : libebml v1.3.4 + libmatroska v1.4.5

Видео
Идентификатор : 1
Формат : AVC
Формат/Информация : Advanced Video Codec
Профиль формата : High@L4
Настройки формата : CABAC / 5 Ref Frames
Параметр CABAC формата : Да
Параметр RefFrames формата : 5 кадров
Идентификатор кодека : V_MPEG4/ISO/AVC
Продолжительность : 1 ч. 57 м.
Битрейт : 4523 Кбит/сек
Ширина : 1912 пикселей
Высота : 792 пикселя
Соотношение сторон : 2,40:1
Режим частоты кадров : Постоянный
Частота кадров : 23,976 (24000/1001) кадра/сек
Цветовое пространство : YUV
Субдискретизация насыщенности : 4:2:0
Битовая глубина : 8 бит
Тип развёртки : Прогрессивная
Бит/(Пиксели*Кадры) : 0.125
Размер потока : 3,72 Гбайт (89%)
Язык : English
Default : Да
Forced : Нет
Цветовой диапазон : Limited
Основные цвета : BT.709
Характеристики трансфера : BT.709
Коэффициенты матрицы : BT.709

Аудио #1
Идентификатор : 2
Формат : AC-3
Формат/Информация : Audio Coding 3
Идентификатор кодека : A_AC3
Продолжительность : 1 ч. 57 м.
Вид битрейта : Постоянный
Битрейт : 192 Кбит/сек
Каналы : 2 канала
Расположение каналов : Front: L R
Частота : 48,0 КГц
Частота кадров : 31,250 кадров/сек (1536 SPF)
Битовая глубина : 16 бит
Метод сжатия : С потерями
Задержка видео : -42 мс.
Размер потока : 162 Мбайт (4%)
Заголовок : MVO
Язык : Russian
Default : Да
Forced : Нет

Аудио #2
Идентификатор : 3
Формат : AC-3
Формат/Информация : Audio Coding 3
Идентификатор кодека : A_AC3
Продолжительность : 1 ч. 57 м.
Вид битрейта : Постоянный
Битрейт : 384 Кбит/сек
Каналы : 6 каналов
Расположение каналов : Front: L C R, Side: L R, LFE
Частота : 48,0 КГц
Частота кадров : 31,250 кадров/сек (1536 SPF)
Битовая глубина : 16 бит
Метод сжатия : С потерями
Задержка видео : -42 мс.
Размер потока : 323 Мбайт (8%)
Заголовок : ENG
Язык : English
Default : Нет
Forced : Нет

Меню
00:00:00.000 : en:1
00:10:06.000 : en:2
00:19:49.000 : en:3
00:31:19.000 : en:4
00:40:51.000 : en:5
00:51:28.000 : en:6
01:01:34.000 : en:7
01:13:20.000 : en:8
01:22:50.000 : en:9
01:34:22.000 : en:10
01:44:54.000 : en:11
01:50:58.000 : en:12



Скачать Пираты.Сомали.The.Pirates.of.Somalia.(Брайан.Бакли).[2017.драма.биография.WEB-DL].[1080р].[MVO.(Синема.УС)]+[Eng].torrent без регистрации
Золото ЗОЛОТАЯ РАЗДАЧА! СКАЧАННОЕ НЕ ЗАСЧИТЫВАЕТСЯ! Золото
Дата: Зарегистрирован   [ Тип: внешний ] Как тут cкачать?
MAGNET ссылка
MAGNET ссылка


Скачать .torrent

11 KB

Статус: проверено DHT
Скачан: торрент - 97 раз, раздача полностью - 121 раз
Размер: 4,19 GB
Оценка:  - (Голосов: 0)
Поблагодарили: 4
Поделиться ссылкой на эту раздачу с друзьями:
В контактеFacebookОдноклассникиTwitterLivejournalМой МирLiveinternet
 

 
Показать сообщения:    


Вы не можете начинать темы
Вы не можете отвечать на сообщения
Вы не можете редактировать свои сообщения
Вы не можете удалять свои сообщения
Вы не можете голосовать в опросах
Вы не можете прикреплять файлы к сообщениям
Вы можете скачивать файлы