Loading...
Error

Скачать Гарри Поттер и философский камень / Harry Potter and the Sorcerer's Stone (Крис Коламбус) [2001, фэнтези, приключения, экранизация, BDRemux] [2160p (4K HDR)] [Dub]+3x[MVO]+[DVO]+[Eng]+[Ger]+[Sub Rus, Eng, Ukr] торрент без регистрации

Статистика раздачи
Размер:  75,67 GB   |    Скачан:  30 раз
Сидов:  1  [  0 KB/s  ]  
 
 
 
Автор Сообщение

МихаНЕзатор

[] 

Информация о фильме
Название: Гарри Поттер и философский камень
Оригинальное название: Harry Potter and the the Sorcerer's Stone
Год выхода: 2001
Жанр: фэнтези, приключения, экранизация
Режиссер: Крис Коламбус

В ролях: Дэниэл Рэдклифф, Руперт Гринт, Эмма Уотсон, Том Фелтон, Ричард Харрис, Мэгги Смит, Алан Рикман, Робби Колтрейн, Саундерс Триплетс, Фиона Шоу, Гарри Меллинг, Дэвид Брэдли (I), Ричард Гриффитс, Дерек Дэдмен, Иэн Харт, Бен Боровецки, Уорвик Дэвис, Верн Тройер, Джон Херт, Ричард Бреммер, Джеральдин Сомервилль, Гарри Тейлор, Джули Уолтерс, Бонни Райт, Крис Рэнкин, Джеймс Фелпс, Оливер Фелпс, Жан Саузерн, Мэттью Льюис, Джеми Вайлет, Джошуа Хердман, Девон Мюррэй, Альфред Энок, Лесли Филлипс, Джон Клиз, Люк Янблад, Рэй Фиарон, Зои Уонамейкер

О фильме: Ужасная трагедия, случившаяся 11 лет назад, навсегда изменила жизнь одного мальчика. С самого детства Гарри рос, испытывая ненависть своих близких. И он даже не знал, что в его судьбе уже давно было предначертано стать одним из самых великих волшебников. И с того момента, как Гарри получил свое первое письмо, приглашение в Школу Чародейства и Волшебства Хогвартс, магия жива! Он прибыл на платформу 9 и ¾, взошел на поезд и уже вместе с новыми друзьями мчится в таинственный мир добра и зла, чести и подлости, дружбы и предательства…



Страна: США, Великобритания
Студия: Warner Bros. Pictures, 1492 Pictures
Продолжительность: 02:32:21
Перевод: Дублированный, профессиональный многоголосый, профессиональный двухголосый, авторский

Файл
Кодек: MPEG-H HEVC HDR Video
Качество: BDRemux 2160p
Видео: 60.7 Mбит/с, 3840x2160, 23.976 fps

Аудио 1: Русский 48 kHz, AC3, 6 ch 640 Kbps - Дубляж
Аудио 2: Русский 48 kHz, AC3, 6 ch 448 Kbps - Профессиональный двухголосый (П. Гланц и И. Королёва)
Аудио 3: Русский 48 kHz, AC3, 6 ch 448 Kbps - Профессиональный многоголосый, закадровый (С.Р.И)
Аудио 4: Русский 48 kHz, AC3, 6 ch 640 Kbps - Авторский (С. Рябов)
Аудио 5: Украинский 48 kHz, AC3, 2 ch 192 Kbps - Профессиональный многоголосый (1+1)
Аудио 6: Украинский 48 kHz, AC3, 2 ch 192 Kbps - Профессиональный многоголосый (Новый канал)
Аудио 7: Английский 48 kHz, AC3, 6 ch 640 Kbps - Оригинал
Аудио 8: Английский 48 kHz, DTS-X MA, 8ch, 4342 Kbps - Оригинал
Аудио 9: Английский 48 kHz, AC3, 2 ch, 192 Kbps - Оригинал+Audiodeion
Аудио 10: Немецкий 48 kHz, DTS-HD MA, 6 ch, 2305 Kbps

Субтитры: Русские, английские, украинские

АНОНСЫ ПОПУЛЯРНЫХ РАЗДАЧ

Видео
Идентификатор : 1
Формат : HEVC
Формат/Информация : High Efficiency Video Coding
Профиль формата : Main 10@L5.1@High
Идентификатор кодека : V_MPEGH/ISO/HEVC
Продолжительность : 2 ч. 32 м.
Битрейт : 60,7 Мбит/сек
Ширина : 3840 пикселей
Высота : 2160 пикселей
Соотношение сторон : 16:9
Режим частоты кадров : Постоянный
Частота кадров : 23,976 (24000/1001) кадра/сек
Цветовое пространство : YUV
Субдискретизация насыщенности : 4:2:0 (Type 2)
Битовая глубина : 10 бит
Бит/(Пиксели*Кадры) : 0.305
Размер потока : 64,6 Гбайт (89%)
Библиотека кодирования : ATEME Titan File 3.8.3 (4.8.3.0)
Default : Да
Forced : Нет
Цветовой диапазон : Limited
Основные цвета : BT.2020
Характеристики трансфера : PQ
Коэффициенты матрицы : BT.2020 non-constant
MasteringDisplay_ColorPrimaries : R: x=0.680000 y=0.320000, G: x=0.265000 y=0.690000, B: x=0.150000 y=0.060000, White point: x=0.312700 y=0.329000
MasteringDisplay_Luminance : min: 0.0050 cd/m2, max: 4000.0000 cd/m2
MaxCLL : 552 cd/m2
MaxFALL : 190 cd/m2

Аудио #1
Идентификатор : 2
Формат : AC-3
Формат/Информация : Audio Coding 3
Параметр Endianness формата : Big
Идентификатор кодека : A_AC3
Продолжительность : 2 ч. 32 м.
Вид битрейта : Постоянный
Битрейт : 640 Кбит/сек
Каналы : 6 каналов
Расположение каналов : Front: L C R, Side: L R, LFE
Частота : 48,0 КГц
Частота кадров : 31,250 кадров/сек (1536 SPF)
Битовая глубина : 16 бит
Метод сжатия : С потерями
Задержка видео : -400 мс.
Размер потока : 697 Мбайт (1%)
Заголовок : [Профессиональный (полное дублирование)]
Язык : Russian
ServiceKind/String : Complete Main
Default : Да
Forced : Нет

Аудио #2
Идентификатор : 3
Формат : AC-3
Формат/Информация : Audio Coding 3
Параметр Endianness формата : Big
Идентификатор кодека : A_AC3
Продолжительность : 2 ч. 29 м.
Вид битрейта : Постоянный
Битрейт : 448 Кбит/сек
Каналы : 6 каналов
Расположение каналов : Front: L C R, Side: L R, LFE
Частота : 48,0 КГц
Частота кадров : 31,250 кадров/сек (1536 SPF)
Битовая глубина : 16 бит
Метод сжатия : С потерями
Задержка видео : -400 мс.
Размер потока : 480 Мбайт (1%)
Заголовок : [Профессиональный (двухголосый)(П. Гланц и И. Королёва)]
Язык : Russian
ServiceKind/String : Complete Main
Default : Нет
Forced : Нет

Аудио #3
Идентификатор : 4
Формат : AC-3
Формат/Информация : Audio Coding 3
Параметр Endianness формата : Big
Идентификатор кодека : A_AC3
Продолжительность : 2 ч. 32 м.
Вид битрейта : Постоянный
Битрейт : 448 Кбит/сек
Каналы : 6 каналов
Расположение каналов : Front: L C R, Side: L R, LFE
Частота : 48,0 КГц
Частота кадров : 31,250 кадров/сек (1536 SPF)
Битовая глубина : 16 бит
Метод сжатия : С потерями
Задержка видео : -400 мс.
Размер потока : 488 Мбайт (1%)
Заголовок : [Профессиональный (многоголосый, закадровый)(С.Р.И)]
Язык : Russian
ServiceKind/String : Complete Main
Default : Нет
Forced : Нет

Аудио #4
Идентификатор : 5
Формат : AC-3
Формат/Информация : Audio Coding 3
Параметр Endianness формата : Big
Идентификатор кодека : A_AC3
Продолжительность : 2 ч. 32 м.
Вид битрейта : Постоянный
Битрейт : 640 Кбит/сек
Каналы : 6 каналов
Расположение каналов : Front: L C R, Side: L R, LFE
Частота : 48,0 КГц
Частота кадров : 31,250 кадров/сек (1536 SPF)
Битовая глубина : 16 бит
Метод сжатия : С потерями
Задержка видео : -400 мс.
Размер потока : 697 Мбайт (1%)
Заголовок : [Авторский (одноголосый)(С. Рябов)]
Язык : Russian
ServiceKind/String : Complete Main
Default : Нет
Forced : Нет

Аудио #5
Идентификатор : 6
Формат : AC-3
Формат/Информация : Audio Coding 3
Параметр Endianness формата : Big
Идентификатор кодека : A_AC3
Продолжительность : 2 ч. 32 м.
Вид битрейта : Постоянный
Битрейт : 192 Кбит/сек
Каналы : 2 канала
Расположение каналов : Front: L R
Частота : 48,0 КГц
Частота кадров : 31,250 кадров/сек (1536 SPF)
Битовая глубина : 16 бит
Метод сжатия : С потерями
Задержка видео : -400 мс.
Размер потока : 209 Мбайт (0%)
Заголовок : [Профессиональный (многоголосый, закадровый)(1+1)]
Язык : Ukrainian
ServiceKind/String : Complete Main
Default : Нет
Forced : Нет

Аудио #6
Идентификатор : 7
Формат : AC-3
Формат/Информация : Audio Coding 3
Параметр Endianness формата : Big
Идентификатор кодека : A_AC3
Продолжительность : 2 ч. 32 м.
Вид битрейта : Постоянный
Битрейт : 192 Кбит/сек
Каналы : 2 канала
Расположение каналов : Front: L R
Частота : 48,0 КГц
Частота кадров : 31,250 кадров/сек (1536 SPF)
Битовая глубина : 16 бит
Метод сжатия : С потерями
Задержка видео : -400 мс.
Размер потока : 209 Мбайт (0%)
Заголовок : [Профессиональный (многоголосый, закадровый)( Новый канал)]
Язык : Ukrainian
ServiceKind/String : Complete Main
Default : Нет
Forced : Нет

Аудио #7
Идентификатор : 8
Формат : AC-3
Формат/Информация : Audio Coding 3
Параметр Endianness формата : Big
Идентификатор кодека : A_AC3
Продолжительность : 2 ч. 32 м.
Вид битрейта : Постоянный
Битрейт : 640 Кбит/сек
Каналы : 6 каналов
Расположение каналов : Front: L C R, Side: L R, LFE
Частота : 48,0 КГц
Частота кадров : 31,250 кадров/сек (1536 SPF)
Битовая глубина : 16 бит
Метод сжатия : С потерями
Задержка видео : -400 мс.
Размер потока : 697 Мбайт (1%)
Заголовок : [Оригинал]
Язык : English
ServiceKind/String : Complete Main
Default : Нет
Forced : Нет

Аудио #8
Идентификатор : 9
Формат : DTS
Формат/Информация : Digital Theater Systems
Профиль формата : X / MA / Core
Режим : 16
Параметр Endianness формата : Big
Идентификатор кодека : A_DTS
Продолжительность : 2 ч. 32 м.
Вид битрейта : Переменный / Переменный / Постоянный
Битрейт : 4342 Кбит/сек / 4342 Кбит/сек / 1509 Кбит/сек
Каналы : Object Based / 8 каналов / 6 каналов
Расположение каналов : Object Based / Front: L C R, Side: L R, Back: L R, LFE / Front: L C R, Side: L R, LFE
Частота : / 48,0 КГц / 48,0 КГц
Частота кадров : 93,750 кадра/сек (512 SPF)
Битовая глубина : / 24 бит / 24 бит
Метод сжатия : / Lossless / Lossy
Размер потока : 4,62 Гбайт (6%)
Заголовок : DTS-HD MA [Оригинал]
Язык : English
Default : Нет
Forced : Нет

Аудио #9
Идентификатор : 10
Формат : AC-3
Формат/Информация : Audio Coding 3
Режим : Dolby Digital
Параметр Endianness формата : Big
Идентификатор кодека : A_AC3
Продолжительность : 2 ч. 32 м.
Вид битрейта : Постоянный
Битрейт : 192 Кбит/сек
Каналы : 2 канала
Расположение каналов : Front: L R
Частота : 48,0 КГц
Частота кадров : 31,250 кадров/сек (1536 SPF)
Битовая глубина : 16 бит
Метод сжатия : С потерями
Размер потока : 209 Мбайт (0%)
Заголовок : ENG [Audiodescription]
Язык : English
ServiceKind/String : Complete Main
Default : Нет
Forced : Нет

Текст #1
Идентификатор : 11
Формат : UTF-8
Идентификатор кодека : S_TEXT/UTF8
Идентификатор кодека/Информация : UTF-8 Plain Text
Продолжительность : 1 ч. 16 м.
Битрейт : 0 бит/сек
ElementCount : 10
Размер потока : 323 байт (0%)
Заголовок : RUS [Forced]
Язык : Russian
Default : Да
Forced : Да

Текст #2
Идентификатор : 12
Формат : UTF-8
Идентификатор кодека : S_TEXT/UTF8
Идентификатор кодека/Информация : UTF-8 Plain Text
Продолжительность : 2 ч. 32 м.
Битрейт : 70 бит/сек
ElementCount : 1252
Размер потока : 78,3 Кбайт (0%)
Заголовок : RUS [Full]
Язык : Russian
Default : Нет
Forced : Нет

Текст #3
Идентификатор : 13
Формат : UTF-8
Идентификатор кодека : S_TEXT/UTF8
Идентификатор кодека/Информация : UTF-8 Plain Text
Продолжительность : 2 ч. 23 м.
Битрейт : 71 бит/сек
ElementCount : 1250
Размер потока : 75,4 Кбайт (0%)
Заголовок : UKR [Full]
Язык : Ukrainian
Default : Нет
Forced : Нет

Текст #4
Идентификатор : 14
Формат : UTF-8
Идентификатор кодека : S_TEXT/UTF8
Идентификатор кодека/Информация : UTF-8 Plain Text
Продолжительность : 2 ч. 31 м.
Битрейт : 42 бит/сек
ElementCount : 1304
Размер потока : 47,2 Кбайт (0%)
Заголовок : ENG [SDH]
Язык : English
Default : Нет
Forced : Нет

Меню
00:00:00.000 : en:Chapter 1
00:04:05.411 : en:Chapter 2
00:08:11.157 : en:Chapter 3
00:12:17.403 : en:Chapter 4
00:18:25.270 : en:Chapter 5
00:21:43.635 : en:Chapter 6
00:24:41.646 : en:Chapter 7
00:28:49.561 : en:Chapter 8
00:31:05.196 : en:Chapter 9
00:34:05.543 : en:Chapter 10
00:37:49.600 : en:Chapter 11
00:41:29.487 : en:Chapter 12
00:46:13.437 : en:Chapter 13
00:50:29.026 : en:Chapter 14
00:55:04.301 : en:Chapter 15
01:00:55.652 : en:Chapter 16
01:03:43.986 : en:Chapter 17
01:07:48.230 : en:Chapter 18
01:13:49.258 : en:Chapter 19
01:20:17.979 : en:Chapter 20
01:23:54.529 : en:Chapter 21
01:28:32.473 : en:Chapter 22
01:31:42.497 : en:Chapter 23
01:36:42.630 : en:Chapter 24
01:42:34.815 : en:Chapter 25
01:49:05.038 : en:Chapter 26
01:53:21.628 : en:Chapter 27
01:58:09.749 : en:Chapter 28
02:03:44.750 : en:Chapter 29
02:06:56.108 : en:Chapter 30
02:10:55.347 : en:Chapter 31
02:14:18.884 : en:Chapter 32
02:17:29.574 : en:Chapter 33
02:21:44.662 : en:Chapter 34
02:24:10.808 : en:Chapter 35



Скачать Гарри.Поттер.и.философский.камень.Harry.Potter.and.the.Sorcerer's.Stone.(Крис.Коламбус).[2001.фэнтези.приключения.экранизация.BDRemux].[2160p.(4K.HDR)].[Dub]+3x[MVO]+[DVO]+[Eng]+[Ger]+[Sub.Rus.Eng.Ukr].torrent без регистрации
Золото ЗОЛОТАЯ РАЗДАЧА! СКАЧАННОЕ НЕ ЗАСЧИТЫВАЕТСЯ! Золото
Дата: Зарегистрирован   [ Тип: внутренний ] Как тут cкачать?
MAGNET ссылка
MAGNET ссылка


Скачать .torrent

95 KB

Статус: проверено DHT
Скачан: торрент - 30 раз, раздача полностью - 9 раз
Размер: 75,67 GB
Оценка:  - (Голосов: 0)
Поблагодарили: 0
Поделиться ссылкой на эту раздачу с друзьями:
В контактеFacebookОдноклассникиTwitterLivejournalМой МирLiveinternet
 

 
Показать сообщения:    


Вы не можете начинать темы
Вы не можете отвечать на сообщения
Вы не можете редактировать свои сообщения
Вы не можете удалять свои сообщения
Вы не можете голосовать в опросах
Вы не можете прикреплять файлы к сообщениям
Вы можете скачивать файлы