Loading...
Error

Скачать Гарри Поттер и Тайная Комната / Harry Potter and the Chamber of Secrets (Крис Коламбус) [2002, фэнтези, приключения, экранизация, BDRemux] [2160p (4K HDR)] [Dub]+3x[MVO]+[DVO]+[Eng]+[Ger]+[Sub Rus, Ukr, Eng] торрент без регистрации

Статистика раздачи
Размер:  79,74 GB   |    Скачан:  25 раз
Сидов:  1  [  0 KB/s  ]  
 
 
 
Автор Сообщение

МихаНЕзатор

[] 

Информация о фильме
Название: Гарри Поттер и Тайная Комната
Оригинальное название: Harry Potter and the Chamber of Secrets
Год выхода: 2002
Жанр: Приключения, семейный, фэнтези, экранизация
Режиссер: Крис Коламбус

В ролях: Дэниэл Рэдклифф, Руперт Гринт, Эмма Уотсон, Ричард Гриффитс, Фиона Шоу, Гарри Меллинг, Тоби Джонс, Джим Нортон (I), Вероника Клиффорд, Джеймс Фелпс

О фильме: Вынужденный провести свои летние каникулы с родственниками-маглами, Гарри очень удивляется, когда застает в своей комнате домашнего эльфа Добби. Он пытается донести, что в этом году в школе Хогвартс происходят ужасные вещи и юному волшебнику не стоит туда возвращаться. Гарри конечно же не воспринимает сказанное всерьез и следует заранее подготовленному плану. Но во время обучения в Хогвартсе действительно опасно: Гарри слышит странные голоса, ученики-маглы подвергаются нападению и конечно же таинственная надпись кровью на стене: «Тайная комната открыта! Трепещите, враги наследника!»

[urlhttp://www.imdb.com/title/tt0295297/] [/url]

Страна: США, Великобритания
Студия: Warner Bros., 1492 Pictures
Продолжительность: 02:40:58
Перевод: Дублированный, профессиональный многоголосый, профессиональный двухголосый

Файл
Кодек: MPEG-H HEVC HDR Video
Качество: BDRemux 2160p
Видео: 60.3 Mбит/с, 3840x2160, 23.976 fps

Аудио 1: Русский 48 kHz, AC3, 6 ch 640 Kbps - Дубляж
Аудио 2: Русский 48 kHz, AC3, 6 ch 448 Kbps - Профессиональный многоголосый, закадровый (С.Р.И)
Аудио 3: Русский 48 kHz, AC3, 6 ch 448 Kbps - Профессиональный двухголосый (П. Гланц и И. Королёва)
Аудио 4: Украинский 48 kHz, AC3, 6 ch 640 Kbps - Профессиональный многоголосый (Новый канал)
Аудио 5: Украинский 48 kHz, AC3, 2 ch 192 Kbps - Профессиональный многоголосый (1+1)
Аудио 6: Украинский 48 kHz, AC3, 2 ch 192 Kbps - Профессиональный многоголосый (Новый канал)
Аудио 7: Английский 48 kHz, DTS, 6 ch, 1536 Kbps - Оригинал
Аудио 8: Английский 48 kHz, DTS-X MA, 8 ch, 4151 Kbps - Оригинал
Аудио 9: Английский 48 kHz, AC3, 2 ch, 192 Kbps - Оригинал+Audiodeion
Аудио 10: Немецкий 48 kHz, DTS-HD MA, 6 ch, 2218 Kbps
Субтитры: Русские (Форсированные, полные), украинские (полные), английские (полные)

АНОНСЫ ПОПУЛЯРНЫХ РАЗДАЧ

Видео
Идентификатор : 1
Формат : HEVC
Формат/Информация : High Efficiency Video Coding
Профиль формата : Main 10@L5.1@High
Идентификатор кодека : V_MPEGH/ISO/HEVC
Продолжительность : 2 ч. 40 м.
Битрейт : 60,3 Мбит/сек
Ширина : 3840 пикселей
Высота : 2160 пикселей
Соотношение сторон : 16:9
Режим частоты кадров : Постоянный
Частота кадров : 23,976 (24000/1001) кадра/сек
Цветовое пространство : YUV
Субдискретизация насыщенности : 4:2:0 (Type 2)
Битовая глубина : 10 бит
Бит/(Пиксели*Кадры) : 0.303
Размер потока : 67,8 Гбайт (85%)
Библиотека кодирования : ATEME Titan File 3.8.3 (4.8.3.0)
Default : Да
Forced : Нет
Цветовой диапазон : Limited
Основные цвета : BT.2020
Характеристики трансфера : PQ
Коэффициенты матрицы : BT.2020 non-constant
MasteringDisplay_ColorPrimaries : R: x=0.680000 y=0.320000, G: x=0.265000 y=0.690000, B: x=0.150000 y=0.060000, White point: x=0.312700 y=0.329000
MasteringDisplay_Luminance : min: 0.0050 cd/m2, max: 4000.0000 cd/m2
MaxCLL : 2856 cd/m2
MaxFALL : 222 cd/m2

Аудио #1
Идентификатор : 2
Формат : AC-3
Формат/Информация : Audio Coding 3
Параметр Endianness формата : Big
Идентификатор кодека : A_AC3
Продолжительность : 2 ч. 40 м.
Вид битрейта : Постоянный
Битрейт : 640 Кбит/сек
Каналы : 6 каналов
Расположение каналов : Front: L C R, Side: L R, LFE
Частота : 48,0 КГц
Частота кадров : 31,250 кадров/сек (1536 SPF)
Битовая глубина : 16 бит
Метод сжатия : С потерями
Размер потока : 737 Мбайт (1%)
Заголовок : AC3 5.1 @ 640 kbps - Дублированный (BD CEE)
Язык : Russian
ServiceKind/String : Complete Main
Default : Да
Forced : Нет

Аудио #2
Идентификатор : 3
Формат : AC-3
Формат/Информация : Audio Coding 3
Параметр Endianness формата : Big
Идентификатор кодека : A_AC3
Продолжительность : 2 ч. 40 м.
Вид битрейта : Постоянный
Битрейт : 448 Кбит/сек
Каналы : 6 каналов
Расположение каналов : Front: L C R, Side: L R, LFE
Частота : 48,0 КГц
Частота кадров : 31,250 кадров/сек (1536 SPF)
Битовая глубина : 16 бит
Метод сжатия : С потерями
Размер потока : 516 Мбайт (1%)
Заголовок : AC3 5.1 @ 448 kbps - (Многоголосый) С.Р.И.
Язык : Russian
ServiceKind/String : Complete Main
Default : Нет
Forced : Нет

Аудио #3
Идентификатор : 4
Формат : AC-3
Формат/Информация : Audio Coding 3
Параметр Endianness формата : Big
Идентификатор кодека : A_AC3
Продолжительность : 2 ч. 40 м.
Вид битрейта : Постоянный
Битрейт : 448 Кбит/сек
Каналы : 6 каналов
Расположение каналов : Front: L C R, Side: L R, LFE
Частота : 48,0 КГц
Частота кадров : 31,250 кадров/сек (1536 SPF)
Битовая глубина : 16 бит
Метод сжатия : С потерями
Размер потока : 515 Мбайт (1%)
Заголовок : AC3 5.1 @ 448 kbps - (Двухголосый) П. Гланц и И. Королёва
Язык : Russian
ServiceKind/String : Complete Main
Default : Нет
Forced : Нет

Аудио #4
Идентификатор : 5
Формат : AC-3
Формат/Информация : Audio Coding 3
Параметр Endianness формата : Big
Идентификатор кодека : A_AC3
Продолжительность : 2 ч. 37 м.
Вид битрейта : Постоянный
Битрейт : 640 Кбит/сек
Каналы : 6 каналов
Расположение каналов : Front: L C R, Side: L R, LFE
Частота : 48,0 КГц
Частота кадров : 31,250 кадров/сек (1536 SPF)
Битовая глубина : 16 бит
Метод сжатия : С потерями
Размер потока : 720 Мбайт (1%)
Заголовок : AC3 5.1 @ 640 kbps - (Многоголосый) Новий канал
Язык : Ukrainian
ServiceKind/String : Complete Main
Default : Нет
Forced : Нет

Аудио #5
Идентификатор : 6
Формат : AC-3
Формат/Информация : Audio Coding 3
Параметр Endianness формата : Big
Идентификатор кодека : A_AC3
Продолжительность : 2 ч. 40 м.
Вид битрейта : Постоянный
Битрейт : 192 Кбит/сек
Каналы : 2 канала
Расположение каналов : Front: L R
Частота : 48,0 КГц
Частота кадров : 31,250 кадров/сек (1536 SPF)
Битовая глубина : 16 бит
Метод сжатия : С потерями
Размер потока : 221 Мбайт (0%)
Заголовок : AC3 2.0 @ 192 kbps - (Многоголосый) 1+1
Язык : Ukrainian
ServiceKind/String : Complete Main
Default : Нет
Forced : Нет

Аудио #6
Идентификатор : 7
Формат : AC-3
Формат/Информация : Audio Coding 3
Параметр Endianness формата : Big
Идентификатор кодека : A_AC3
Продолжительность : 2 ч. 40 м.
Вид битрейта : Постоянный
Битрейт : 192 Кбит/сек
Каналы : 2 канала
Расположение каналов : Front: L R
Частота : 48,0 КГц
Частота кадров : 31,250 кадров/сек (1536 SPF)
Битовая глубина : 16 бит
Метод сжатия : С потерями
Размер потока : 221 Мбайт (0%)
Заголовок : AC3 2.0 @ 192 kbps - (Многоголосый) Новий канал
Язык : Ukrainian
ServiceKind/String : Complete Main
Default : Нет
Forced : Нет

Аудио #7
Идентификатор : 8
Формат : DTS
Формат/Информация : Digital Theater Systems
Режим : 16
Параметр Endianness формата : Big
Идентификатор кодека : A_DTS
Продолжительность : 2 ч. 40 м.
Вид битрейта : Постоянный
Битрейт : 1510 Кбит/сек
Каналы : 6 каналов
Расположение каналов : Front: L C R, Side: L R, LFE
Частота : 48,0 КГц
Частота кадров : 93,750 кадра/сек (512 SPF)
Битовая глубина : 24 бит
Метод сжатия : С потерями
Размер потока : 1,70 Гбайт (2%)
Заголовок : DTS 5.1 @ 1536 kbps
Язык : English
Default : Нет
Forced : Нет

Аудио #8
Идентификатор : 9
Формат : DTS
Формат/Информация : Digital Theater Systems
Профиль формата : X / MA / Core
Режим : 16
Параметр Endianness формата : Big
Идентификатор кодека : A_DTS
Продолжительность : 2 ч. 40 м.
Вид битрейта : Переменный / Переменный / Постоянный
Битрейт : 4151 Кбит/сек / 4151 Кбит/сек / 1509 Кбит/сек
Каналы : Object Based / 8 каналов / 6 каналов
Расположение каналов : Object Based / Front: L C R, Side: L R, Back: L R, LFE / Front: L C R, Side: L R, LFE
Частота : / 48,0 КГц / 48,0 КГц
Частота кадров : 93,750 кадра/сек (512 SPF)
Битовая глубина : / 24 бит / 24 бит
Метод сжатия : / Lossless / Lossy
Размер потока : 4,67 Гбайт (6%)
Заголовок : DTS-HD MA [Original]
Язык : English
Default : Нет
Forced : Нет

Аудио #9
Идентификатор : 10
Формат : AC-3
Формат/Информация : Audio Coding 3
Режим : Dolby Digital
Параметр Endianness формата : Big
Идентификатор кодека : A_AC3
Продолжительность : 2 ч. 40 м.
Вид битрейта : Постоянный
Битрейт : 192 Кбит/сек
Каналы : 2 канала
Расположение каналов : Front: L R
Частота : 48,0 КГц
Частота кадров : 31,250 кадров/сек (1536 SPF)
Битовая глубина : 16 бит
Метод сжатия : С потерями
Размер потока : 221 Мбайт (0%)
Заголовок : ENG [Audiodescription]
Язык : English
ServiceKind/String : Complete Main
Default : Нет
Forced : Нет

Аудио #10
Идентификатор : 11
Формат : DTS
Формат/Информация : Digital Theater Systems
Профиль формата : MA / Core
Режим : 16
Параметр Endianness формата : Big
Идентификатор кодека : A_DTS
Продолжительность : 2 ч. 40 м.
Вид битрейта : Переменный / Постоянный
Битрейт : 2218 Кбит/сек / 1509 Кбит/сек
Каналы : 6 каналов
Расположение каналов : Front: L C R, Side: L R, LFE
Частота : 48,0 КГц
Частота кадров : 93,750 кадра/сек (512 SPF)
Битовая глубина : 16 бит
Метод сжатия : Без потерь / Lossy
Размер потока : 2,49 Гбайт (3%)
Заголовок : DTS-HD MA [German]
Язык : German
Default : Нет
Forced : Нет

Текст #1
Идентификатор : 12
Формат : UTF-8
Идентификатор кодека : S_TEXT/UTF8
Идентификатор кодека/Информация : UTF-8 Plain Text
Продолжительность : 1 м. 2 с.
Битрейт : 25 бит/сек
ElementCount : 6
Размер потока : 196 байт (0%)
Заголовок : Русские (Форсированные)
Язык : Russian
Default : Да
Forced : Да

Текст #2
Идентификатор : 13
Формат : UTF-8
Идентификатор кодека : S_TEXT/UTF8
Идентификатор кодека/Информация : UTF-8 Plain Text
Продолжительность : 2 ч. 29 м.
Битрейт : 79 бит/сек
ElementCount : 1662
Размер потока : 86,5 Кбайт (0%)
Заголовок : Русские
Язык : Russian
Default : Нет
Forced : Нет

Текст #3
Идентификатор : 14
Формат : UTF-8
Идентификатор кодека : S_TEXT/UTF8
Идентификатор кодека/Информация : UTF-8 Plain Text
Продолжительность : 2 ч. 40 м.
Битрейт : 66 бит/сек
ElementCount : 1513
Размер потока : 78,4 Кбайт (0%)
Заголовок : UKR Full
Язык : Ukrainian
Default : Нет
Forced : Нет

Текст #4
Идентификатор : 15
Формат : UTF-8
Идентификатор кодека : S_TEXT/UTF8
Идентификатор кодека/Информация : UTF-8 Plain Text
Продолжительность : 2 ч. 28 м.
Битрейт : 51 бит/сек
ElementCount : 1505
Размер потока : 55,8 Кбайт (0%)
Заголовок : ENG Full
Язык : English
Default : Нет
Forced : Нет

Меню
00:00:00.000 : en:Chapter 1
00:03:00.972 : en:Chapter 2
00:07:55.516 : en:Chapter 3
00:10:39.889 : en:Chapter 4
00:14:07.054 : en:Chapter 5
00:17:57.701 : en:Chapter 6
00:22:16.084 : en:Chapter 7
00:25:49.589 : en:Chapter 8
00:28:50.311 : en:Chapter 9
00:31:07.949 : en:Chapter 10
00:35:14.153 : en:Chapter 11
00:38:00.361 : en:Chapter 12
00:42:47.940 : en:Chapter 13
00:48:16.101 : en:Chapter 14
00:52:16.091 : en:Chapter 15
00:57:56.931 : en:Chapter 16
01:03:13.831 : en:Chapter 17
01:07:50.483 : en:Chapter 18
01:11:56.103 : en:Chapter 19
01:17:22.346 : en:Chapter 20
01:21:33.805 : en:Chapter 21
01:25:39.884 : en:Chapter 22
01:29:42.210 : en:Chapter 23
01:33:30.313 : en:Chapter 24
01:37:42.857 : en:Chapter 25
01:42:49.037 : en:Chapter 26
01:47:01.581 : en:Chapter 27
01:51:07.952 : en:Chapter 28
01:55:26.169 : en:Chapter 29
02:00:53.246 : en:Chapter 30
02:04:09.733 : en:Chapter 31
02:09:32.264 : en:Chapter 32
02:14:32.397 : en:Chapter 33
02:18:05.902 : en:Chapter 34
02:21:20.180 : en:Chapter 35
02:26:35.411 : en:Chapter 36
02:31:43.052 : en:Chapter 37



Скачать Гарри.Поттер.и.Тайная.Комната.Harry.Potter.and.the.Chamber.of.Secrets.(Крис.Коламбус).[2002.фэнтези.приключения.экранизация.BDRemux].[2160p.(4K.HDR)].[Dub]+3x[MVO]+[DVO]+[Eng]+[Ger]+[Sub.Rus.Ukr.Eng].torrent без регистрации
Золото ЗОЛОТАЯ РАЗДАЧА! СКАЧАННОЕ НЕ ЗАСЧИТЫВАЕТСЯ! Золото
Дата: Зарегистрирован   [ Тип: внутренний ] Как тут cкачать?
MAGNET ссылка
MAGNET ссылка


Скачать .torrent

101 KB

Статус: проверено DHT
Скачан: торрент - 25 раз, раздача полностью - 6 раз
Размер: 79,74 GB
Оценка:  - (Голосов: 0)
Поблагодарили: 0
Поделиться ссылкой на эту раздачу с друзьями:
В контактеFacebookОдноклассникиTwitterLivejournalМой МирLiveinternet
 

 
Показать сообщения:    


Вы не можете начинать темы
Вы не можете отвечать на сообщения
Вы не можете редактировать свои сообщения
Вы не можете удалять свои сообщения
Вы не можете голосовать в опросах
Вы не можете прикреплять файлы к сообщениям
Вы можете скачивать файлы