Loading...
Error

Скачать Обратный отсчёт: Перезапуск / Reset / Zhi ming dao shu (Чхан) [2017, фантастика, боевик, WEBRip] [2160p] [VO (Xixidok)] торрент без регистрации

Статистика раздачи
Размер:  4,1 GB   |    Скачан:  58 раз
Сидов:  1  [  0 KB/s  ]  
 
 
 
Автор Сообщение

МихаНЕзатор

[] 

Информация о фильме
Название: Обратный отсчёт: Перезапуск
Оригинальное название: Fatal Countdown: Reset
Год выхода: 2017
Жанр: фантастика, боевик
Режиссер: Чхан

В ролях: Ян Ми, Уоллес Хо, Цзинь Шицзя, Лю Чан, Чжан Ихань, Lidan Wang, Ким Хи-вон, Guangxu Luo, Youjin Chen, Lin Xu

О фильме: История вращается вокруг Ся Тянь, единственной матери и ученого, чья работа жизни - это машина, которая может позволить людям вернуться в прошлое. Но когда ее сын, Доу Доу, похищен, единственный способ спасти его, это использовать машину времени, чтобы вернуться на час и пятьдесят минут назад, чтобы предотвратить похищение



Небольшая реклама в титрах

Страна: Китай
Продолжительность: 01:45:00
Перевод: Любительский (одноголосый) Хихикающий доктор

Файл
Формат: Matroska
Качество: WEBRip 2160p
Видео: 3840x1608 (2.40:1), 24.000 fps, High@L5.1 ~5 244 kbps avg, 0.035 bit/pixe
Звук: 44.100 kHz, MPEG Layer 3, 2 ch, ~192.00 kbps avg rus

АНОНСЫ ПОПУЛЯРНЫХ РАЗДАЧ

Format : Matroska
Format version : Version 4 / Version 2
File size : 4.10 GiB
Duration : 1h 45mn
Overall bit rate : 5 547 Kbps
Encoded date : UTC 2017-12-24 09:30:44
Writing application : mkvmerge v15.0.0 ('Duel with the Devil') 64-bit
Writing library : libebml v1.3.5 + libmatroska v1.4.5
DURATION : 01:45:44.359000000
NUMBER_OF_FRAMES : 242870
NUMBER_OF_BYTES : 152264620
_STATISTICS_WRITING_APP : mkvmerge v15.0.0 ('Duel with the Devil') 64-bit
_STATISTICS_WRITING_DATE_UTC : 2017-12-24 09:30:44
_STATISTICS_TAGS : BPS DURATION NUMBER_OF_FRAMES NUMBER_OF_BYTES

Video
ID : 1
Format : AVC
Format/Info : Advanced Video Codec
Format profile : High@L5.1
Format settings, CABAC : Yes
Format settings, ReFrames : 3 frames
Codec ID : V_MPEG4/ISO/AVC
Duration : 1h 45mn
Bit rate : 5 244 Kbps
Width : 3 840 pixels
Height : 1 608 pixels
Display aspect ratio : 2.40:1
Frame rate mode : Constant
Frame rate : 24.000 fps
Color space : YUV
Chroma subsampling : 4:2:0
Bit depth : 8 bits
Scan type : Progressive
Bits/(Pixel*Frame) : 0.035
Stream size : 3.87 GiB (95%)
Writing library : qiyi.com vtc-test
Default : Yes
Forced : No
Color primaries : BT.709
Transfer characteristics : BT.709
Matrix coefficients : BT.709
Color range : Limited

Audio
ID : 2
Format : MPEG Audio
Format version : Version 1
Format profile : Layer 3
Codec ID : A_MPEG/L3
Codec ID/Hint : MP3
Duration : 1h 45mn
Bit rate mode : Constant
Bit rate : 192 Kbps
Channel(s) : 2 channels
Sampling rate : 44.1 KHz
Compression mode : Lossy
Stream size : 145 MiB (3%)
Default : Yes
Forced : No



Скачать Обратный.отсчёт.Перезапуск.Reset.Zhi.ming.dao.shu.(Чхан).[2017.фантастика.боевик.WEBRip].[2160p].[VO.(Xixidok)].torrent без регистрации
Золото ЗОЛОТАЯ РАЗДАЧА! СКАЧАННОЕ НЕ ЗАСЧИТЫВАЕТСЯ! Золото
Дата: Зарегистрирован   [ Тип: внутренний ] Как тут cкачать?
MAGNET ссылка
MAGNET ссылка


Скачать .torrent

21 KB

Статус: проверено DHT
Скачан: торрент - 58 раз, раздача полностью - 75 раз
Размер: 4,1 GB
Оценка:  - (Голосов: 0)
Поблагодарили: 3
Поделиться ссылкой на эту раздачу с друзьями:
В контактеFacebookОдноклассникиTwitterLivejournalМой МирLiveinternet
 

 
Показать сообщения:    


Вы не можете начинать темы
Вы не можете отвечать на сообщения
Вы не можете редактировать свои сообщения
Вы не можете удалять свои сообщения
Вы не можете голосовать в опросах
Вы не можете прикреплять файлы к сообщениям
Вы можете скачивать файлы