Loading...
Error

Скачать Четверо против банка / Vier gegen die Bank (Вольфганг Петерсен) [2016, комедия, криминал, BDRip] [720p] [Dub (лицензия iTunes)]+[Ger]+[Sub Eng, Ger] торрент без регистрации

Статистика раздачи
Размер:  4,88 GB   |    Скачан:  69 раз
Сидов:  1  [  0 KB/s  ]  
 
 
 
Автор Сообщение

МихаНЕзатор

[] 

Информация о фильме
Название: Четверо против банка
Оригинальное название: Vier gegen die Bank
Год выхода: 2016
Жанр: комедия, криминал
Режиссер: Вольфганг Петерсен

В ролях: Антье Трауэ, Александра Мария Лара, Тиль Швайгер, Яна Палласке, Маттиас Швайгхёфер, Леопольд Хорнунг, Клаудия Михельсен, Фахри Огюн Ярдим, Михаэль Хербиг, Ян Йозеф Лиферс

О фильме: Актер, спортсмен и рекламный агент инвестируют все свои сбережения под хорошие проценты, но неожиданно их счета прогорают. Им остается только топить свое горе в ближайшем баре, где они встречают своего инвестиционного агента. Разгневанная троица пытается выместить зло на нем, но тот сам оказался жертвой начальства и лишился работы. Теперь у этой четверки есть выбор: смириться с ударом судьбы или спланировать и осуществить дерзкое ограбление банка, чтобы вернуть свои кровно заработанные.



Страна: Германия
Продолжительность: 01:36:00
Перевод: Профессиональный (дублированный) iTunes

Файл
Формат: MKV
Качество: BDRip 720p
Видео: AVC, 6258 Kb/s, 1280x534, 23,976 fps
Аудио1: AC3, 384 Kb/s, 6 ch, 48,0 KHz [Russian]
Аудио2: AC3, 640 Kb/s, 6 ch, 48,0 KHz [German]
Cубтитры: English, German

АНОНСЫ ПОПУЛЯРНЫХ РАЗДАЧ
General
Unique ID : 176839925775986919916764991083441736876 (0x850A217ED46CCEEC8E8E3B4B2D12CCAC)
Complete name : C:UsersUserDesktopЧетверо против банка_2016_D_BDRip_72Op.mkv
Format : Matroska
Format version : Version 2
File size : 4.88 GiB
Duration : 1 h 36 min
Overall bit rate : 7 279 kb/s
Encoded date : UTC 2018-01-10 19:31:32
Writing application : mkvmerge v8.3.0 ('Over the Horizon') 64bit
Writing library : libebml v1.3.1 + libmatroska v1.4.2
Cover : Yes
Attachments : cover.jpg

Video
ID : 1
Format : AVC
Format/Info : Advanced Video Codec
Format profile : High@L4.1
Format settings : CABAC / 12 Ref Frames
Format settings, CABAC : Yes
Format settings, ReFrames : 12 frames
Codec ID : V_MPEG4/ISO/AVC
Duration : 1 h 36 min
Bit rate : 6 110 kb/s
Width : 1 280 pixels
Height : 534 pixels
Display aspect ratio : 2.40:1
Frame rate mode : Constant
Frame rate : 23.976 (24000/1001) FPS
Color space : YUV
Chroma subsampling : 4:2:0
Bit depth : 8 bits
Scan type : Progressive
Bits/(Pixel*Frame) : 0.373
Stream size : 4.10 GiB (84%)
Writing library : x264 core 152 r2851+58 429492e t_mod_Custom [8-bit@all X86_64]
Encoding settings : cabac=1 / ref=12 / deblock=1:-3:-3 / analyse=0x3:0x133 / me=umh / subme=10 / psy=1 / fade_compensate=0.00 / psy_rd=1.05:0.00 / mixed_ref=1 / me_range=48 / chroma_me=1 / trellis=2 / 8x8dct=1 / cqm=0 / deadzone=21,11 / fast_pskip=0 / chroma_qp_offset=-2 / threads=6 / lookahead_threads=1 / sliced_threads=0 / nr=0 / decimate=1 / interlaced=0 / bluray_compat=0 / constrained_intra=0 / fgo=0 / bframes=12 / b_pyramid=2 / b_adapt=2 / b_bias=0 / direct=3 / weightb=1 / open_gop=0 / weightp=2 / keyint=250 / keyint_min=23 / scenecut=40 / intra_refresh=0 / rc_lookahead=60 / rc=crf / mbtree=0 / crf=16.0000 / qcomp=0.70 / qpmin=0:0:0 / qpmax=69:69:69 / qpstep=4 / vbv_maxrate=62500 / vbv_bufsize=78125 / crf_max=0.0 / nal_hrd=none / filler=0 / ip_ratio=1.30 / pb_ratio=1.20 / aq=3:0.80 / aq-sensitivity=10.00 / aq-factor=1.00:1.00:1.00 / aq2=1:0.70 / aq2-sensitivity=15.00 / aq2-factor=1.00:1.00:1.00 / aq3=3:[0.65:0.65]:[0.65:0.65]:[0.65:0.65]:[0.65:0.65] / aq3-sensitivity=10.00 / aq3-factor=[1.00:1.00]:[1.00:1.00]:[1.00:1.00] / aq3-boundary=192:64:24 / zones=64,1579,crf=14.0
Language : English
Default : Yes
Forced : No
Color range : Limited
Color primaries : BT.709
Transfer characteristics : BT.709
Matrix coefficients : BT.709

Audio #1
ID : 2
Format : AC-3
Format/Info : Audio Coding 3
Codec ID : A_AC3
Duration : 1 h 36 min
Bit rate mode : Constant
Bit rate : 384 kb/s
Channel(s) : 6 channels
Channel positions : Front: L C R, Side: L R, LFE
Sampling rate : 48.0 kHz
Frame rate : 31.250 FPS (1536 SPF)
Bit depth : 16 bits
Compression mode : Lossy
Stream size : 264 MiB (5%)
Language : Russian
Service kind : Complete Main
Default : Yes
Forced : No

Audio #2
ID : 3
Format : AC-3
Format/Info : Audio Coding 3
Codec ID : A_AC3
Duration : 1 h 36 min
Bit rate mode : Constant
Bit rate : 640 kb/s
Channel(s) : 6 channels
Channel positions : Front: L C R, Side: L R, LFE
Sampling rate : 48.0 kHz
Frame rate : 31.250 FPS (1536 SPF)
Bit depth : 16 bits
Compression mode : Lossy
Stream size : 440 MiB (9%)
Language : German
Service kind : Complete Main
Default : No
Forced : No

Text #1
ID : 4
Format : UTF-8
Codec ID : S_TEXT/UTF8
Codec ID/Info : UTF-8 Plain Text
Language : English
Default : No
Forced : No

Text #2
ID : 5
Format : UTF-8
Codec ID : S_TEXT/UTF8
Codec ID/Info : UTF-8 Plain Text
Language : German
Default : No
Forced : No

Text #3
ID : 6
Format : UTF-8
Codec ID : S_TEXT/UTF8
Codec ID/Info : UTF-8 Plain Text
Title : SDH
Language : German
Default : No
Forced : No

Menu
00:00:00.000 : en:00:00:00.000
00:09:38.703 : en:00:09:38.703
00:17:04.232 : en:00:17:04.232
00:25:13.721 : en:00:25:13.721
00:34:46.042 : en:00:34:46.042
00:42:16.284 : en:00:42:16.284
00:48:43.963 : en:00:48:43.963
00:56:12.953 : en:00:56:12.953
01:02:25.659 : en:01:02:25.659
01:10:42.280 : en:01:10:42.280
01:20:28.323 : en:01:20:28.323
01:27:11.184 : en:01:27:11.184



Скачать Четверо.против.банка.Vier.gegen.die.Bank.(Вольфганг.Петерсен).[2016.комедия.криминал.BDRip].[720p].[Dub.(лицензия.iTunes)]+[Ger]+[Sub.Eng.Ger].torrent без регистрации
Золото ЗОЛОТАЯ РАЗДАЧА! СКАЧАННОЕ НЕ ЗАСЧИТЫВАЕТСЯ! Золото
Дата: Зарегистрирован   [ Тип: внутренний ] Как тут cкачать?
MAGNET ссылка
MAGNET ссылка


Скачать .torrent

13 KB

Статус: проверено DHT
Скачан: торрент - 69 раз, раздача полностью - 55 раз
Размер: 4,88 GB
Оценка:  - (Голосов: 0)
Поблагодарили: 2
Поделиться ссылкой на эту раздачу с друзьями:
В контактеFacebookОдноклассникиTwitterLivejournalМой МирLiveinternet
 

 
Показать сообщения:    


Вы не можете начинать темы
Вы не можете отвечать на сообщения
Вы не можете редактировать свои сообщения
Вы не можете удалять свои сообщения
Вы не можете голосовать в опросах
Вы не можете прикреплять файлы к сообщениям
Вы можете скачивать файлы