Loading...
Error

Скачать Земля: 12500 снимков с орбиты / Earth timelapses (Александр Герст) [2014, документальный, короткометражный, видовой, космос, UHD] [2160p] [4K] торрент без регистрации

Статистика раздачи
Размер:  1,48 GB   |    Скачан:  10 раз
Сидов:  10  [  0 KB/s  ]  
 
 
 
Автор Сообщение

Marsianka

[] 

Информация о фильме
Название: Земля
Оригинальное: Earth timelapses
Год выхода: 2014
Жанр: документальный, короткометражный, видовой, космос
Режиссер: Александр Герст

Описание:
Данное видео — это шестиминутная съёмка Земли из космоса. Оно включает в себя сочетание 12500 снимков, которые сделал астронавт Александр Герст во время своего шестимесячного полёта. Этот ролик о нашей прекрасной планете, в котором вы можете увидеть полярное сияние, восходы, облака, звёзды, океаны и тонкую полоску атмосферы, которая защищает нас от космоса. Александр установил камеры, которые автоматически делают снимки с регулярными интервалами. Сочетание этих изображений дает эффект интервальной съёмки, наблюдаемый в этом видео.

Выпущено: Германия, ESA
Продолжительность: 00:06:10
Перевод: Не требуется

Файл
Кодек: MPEG-4 AVC
Качество: UHD 2160p | 4K
Видео: 3840x2160, 34,0 Мбит/с, 25 кадр/с
Звук: AAC, 44,1 КГц, 2 канала, 256 Кбит/с
Полное имя : C:EARTH TIMELAPSES.mp4
Формат : MPEG-4
Профиль формата : Base Media / Version 2
Идентификатор кодека : mp42 (mp42/mp41)
Размер файла : 1,48 Гбайт
Продолжительность : 6 м. 10 с.
Общий поток : 34,3 Мбит/сек
Дата кодирования : UTC 2014-11-25 16:45:50
Дата пометки : UTC 2014-11-25 16:46:18

Видео
Идентификатор : 1
Формат : AVC
Формат/Информация : Advanced Video Codec
Профиль формата : Main@L5.1
Настройки формата : 2 Ref Frames
Параметр CABAC формата : Нет
Параметр RefFrames формата : 2 кадра
Параметр GOP формата : M=2, N=50
Идентификатор кодека : avc1
Идентификатор кодека/Информация : Advanced Video Coding
Продолжительность : 6 м. 10 с.
Битрейт : 34,0 Мбит/сек
Ширина : 3840 пикселей
Высота : 2160 пикселей
Соотношение сторон : 16:9
Режим частоты кадров : Постоянный
Частота кадров : 25,000 кадров/сек
Цветовое пространство : YUV
Субдискретизация насыщенности : 4:2:0
Битовая глубина : 8 бит
Тип развёртки : Прогрессивная
Бит/(Пиксели*Кадры) : 0.164
Размер потока : 1,47 Гбайт (99%)
Язык : English
Дата кодирования : UTC 2014-11-25 16:45:50
Дата пометки : UTC 2014-11-25 16:46:18
Цветовой диапазон : Limited
Основные цвета : BT.709
Характеристики трансфера : BT.709
Коэффициенты матрицы : BT.709

Аудио
Идентификатор : 2
Формат : AAC
Формат/Информация : Advanced Audio Codec
Профиль формата : LC
Идентификатор кодека : mp4a-40-2
Продолжительность : 6 м. 10 с.
Вид битрейта : Постоянный
Битрейт : 256 Кбит/сек
Каналы : 2 канала
Расположение каналов : Front: L R
Частота : 48,0 КГц
Частота кадров : 46,875 кадров/сек (1024 SPF)
Метод сжатия : С потерями
Размер потока : 11,3 Мбайт (1%)
Язык : English
Дата кодирования : UTC 2014-11-25 16:45:50
Дата пометки : UTC 2014-11-25 16:46:18



Скачать Земля.12500.снимков.с.орбиты.Earth.timelapses.(Александр.Герст).[2014.документальный.короткометражный.видовой.космос.UHD].[2160p].[4K].torrent без регистрации
Золото ЗОЛОТАЯ РАЗДАЧА! СКАЧАННОЕ НЕ ЗАСЧИТЫВАЕТСЯ! Золото
Дата: Зарегистрирован   [ Тип: внешний ] Как тут cкачать?
MAGNET ссылка
MAGNET ссылка


Скачать .torrent

16 KB

Статус: проверено DHT
Скачан: торрент - 10 раз, раздача полностью - 5 раз
Размер: 1,48 GB
Оценка:  - (Голосов: 0)
Поблагодарили: 1
Поделиться ссылкой на эту раздачу с друзьями:
В контактеFacebookОдноклассникиTwitterLivejournalМой МирLiveinternet
 

 
Показать сообщения:    


Вы не можете начинать темы
Вы не можете отвечать на сообщения
Вы не можете редактировать свои сообщения
Вы не можете удалять свои сообщения
Вы не можете голосовать в опросах
Вы не можете прикреплять файлы к сообщениям
Вы можете скачивать файлы