Loading...
Error

Скачать Королева при исполнении (01-02 из 02) (Ольга Лысенко) [2018, детектив, мелодрама, WEB-DLRip] [1080p] торрент без регистрации

Статистика раздачи
Размер:  3,49 GB   |    Скачан:  71 раз
Сидов:  5  [  0 KB/s  ]  
 
 
 
Автор Сообщение

МихаНЕзатор

[] 

Информация о фильме
Название: Королева при исполнении
Год выхода: 2018
Жанр: Комедия, мелодрама
Режиссер: Ольга Лысенко

В ролях: Ольга Арнтгольц, Станислав Бондаренко, Дмитрий Ефремов, Дмитрий Тарасов, Николай Ковбас, Андрей Харыбин, Сергей Холмогоров, Лилия Разакова, Сергей Морин, Василиса Перелыгина, Юлия Чиплиева

О фильме: «Мисс Конгениальность» – российская версия. Молодая девушка Даша (Ольга Арнтгольц) работает следователем. В свои 26 лет ей уже удалось дослужиться до звания капитана полиции. Девушка по-настоящему увлечена своей работой: расследовать преступления и ловить бандитов – вот, чем она всегда хотела заниматься. В Дашиной жизни есть только работа, противоположный пол девушку мало интересует, равно как и привычные для женщин вещи – косметика, модная одежда и т. д. Но все меняется, когда Даше поручают весьма необычное дело. На городском конкурсе красоты совершено покушение на одну из участниц по имени Вероника. Личность и мотивы преступника неизвестны, но как удачно, что Даша как две капли воды похожа на пострадавшую. Ей предстоит необычная работа под прикрытием: она должна отправиться на конкурс и притвориться Вероникой. В этом задании не было бы ничего сложного, если бы не один момент: Даша прекрасно знает, как поймать и обезвредить преступника, но как работать, если тебе приходится носить ненавистные шпильки, наращенные ресницы, волосы, ногти – как справиться со всей этой девичьей ерундой?

Релиз от:
Silverok

Страна: Россия
Студия: ООО "Хит Фильм Продакшн"
Продолжительность: 2 х ~ 00:46:00
Перевод: Не требуется

Файл
Кодек: h.264
Качество: WEB-DLRip 1080p
Видео: MPEG-4 AVC, ~ 5120 Кбит/с, 1920x1080, 25,000 кадр/с
Звук: Русский (AC3, 2 ch, 256 Кбит/с)
Субтитры: Нет

Релиз от:
General
Unique ID : 204782113006150545989360075617671886614 (0x9A0F99B0A02AF1B7870EF7867990B716)
Complete name : D:uTorrentKoroleva.pri.ispolnenii.2018.WEB-DLRip.1080pKoroleva.pri.ispolnenii.(01.iz.02).2018.WEB-DLRip.1080p.MediaClub.mkv
Format : Matroska
Format version : Version 4 / Version 2
File size : 1.71 GiB
Duration : 45 min 39 s
Overall bit rate : 5 353 kb/s
Encoded date : UTC 2018-01-06 10:05:17
Writing application : mkvmerge v17.0.0 ('Be Ur Friend') 64-bit
Writing library : libebml v1.3.5 + libmatroska v1.4.8

Video
ID : 1
Format : AVC
Format/Info : Advanced Video Codec
Format profile : High@L4
Format settings : CABAC / 4 Ref Frames
Format settings, CABAC : Yes
Format settings, RefFrames : 4 frames
Codec ID : V_MPEG4/ISO/AVC
Duration : 45 min 39 s
Bit rate : 5 120 kb/s
Width : 1 920 pixels
Height : 1 080 pixels
Display aspect ratio : 16:9
Frame rate mode : Constant
Frame rate : 25.000 FPS
Color space : YUV
Chroma subsampling : 4:2:0
Bit depth : 8 bits
Scan type : Progressive
Bits/(Pixel*Frame) : 0.099
Stream size : 1.62 GiB (95%)
Title : WEB-DLRip by Silverok
Writing library : x264 core 142
Encoding settings : cabac=1 / ref=3 / deblock=1:0:0 / analyse=0x3:0x113 / me=hex / subme=7 / psy=1 / psy_rd=1.00:0.00 / mixed_ref=1 / me_range=16 / chroma_me=1 / trellis=1 / 8x8dct=1 / cqm=0 / deadzone=21,11 / fast_pskip=1 / chroma_qp_offset=-2 / threads=48 / lookahead_threads=8 / sliced_threads=0 / nr=0 / decimate=1 / interlaced=0 / bluray_compat=0 / constrained_intra=0 / bframes=6 / b_pyramid=2 / b_adapt=1 / b_bias=0 / direct=1 / weightb=1 / open_gop=0 / weightp=2 / keyint=50 / keyint_min=26 / scenecut=0 / intra_refresh=0 / rc_lookahead=40 / rc=2pass / mbtree=1 / bitrate=5120 / ratetol=1.0 / qcomp=0.60 / qpmin=0 / qpmax=69 / qpstep=4 / cplxblur=20.0 / qblur=0.5 / vbv_maxrate=7680 / vbv_bufsize=20480 / nal_hrd=none / filler=0 / ip_ratio=1.40 / aq=1:1.00
Default : Yes
Forced : No

Audio
ID : 2
Format : AC-3
Format/Info : Audio Coding 3
Codec ID : A_AC3
Duration : 45 min 39 s
Bit rate mode : Constant
Bit rate : 256 kb/s
Channel(s) : 2 channels
Channel positions : Front: L R
Sampling rate : 48.0 kHz
Frame rate : 31.250 FPS (1536 SPF)
Bit depth : 16 bits
Compression mode : Lossy
Stream size : 83.6 MiB (5%)
Language : Russian
Service kind : Complete Main
Default : Yes
Forced : No



Скачать Королева.при.исполнении.(01-02.из.02).(Ольга.Лысенко).[2018.детектив.мелодрама.WEB-DLRip].[1080p].torrent без регистрации
Золото ЗОЛОТАЯ РАЗДАЧА! СКАЧАННОЕ НЕ ЗАСЧИТЫВАЕТСЯ! Золото
Дата: Зарегистрирован   [ Тип: внешний ] Как тут cкачать?
MAGNET ссылка
MAGNET ссылка


Скачать .torrent

19 KB

Статус: проверено DHT
Скачан: торрент - 71 раз, раздача полностью - 38 раз
Размер: 3,49 GB
Оценка:  - (Голосов: 0)
Поблагодарили: 0
Поделиться ссылкой на эту раздачу с друзьями:
В контактеFacebookОдноклассникиTwitterLivejournalМой МирLiveinternet
 

 
Показать сообщения:    


Вы не можете начинать темы
Вы не можете отвечать на сообщения
Вы не можете редактировать свои сообщения
Вы не можете удалять свои сообщения
Вы не можете голосовать в опросах
Вы не можете прикреплять файлы к сообщениям
Вы можете скачивать файлы