Loading...
Error

Скачать Мимик / Мимикрия / Mimic / Jang-san-beom (Хо Джон) [2017, ужасы, триллер, HDRip] [720p] [VO (Xixidok)] торрент без регистрации

Статистика раздачи
Размер:  2,23 GB   |    Скачан:  49 раз
Сидов:  1  [  0 KB/s  ]  
 
 
 
Автор Сообщение

МихаНЕзатор

[] 

Информация о фильме
Название: Мимик / Мимикрия
Оригинальное название: Mimic / Jang-san-beom
Год выхода: 2017
Жанр: ужасы, триллер
Режиссер: Хо Джон

В ролях: Ём Джон-а, Пак Хёк-квон, Хо Джин, Щин Рин-а, Пан Ю-соль, Ли Джун-хёк, Киль Хэ-ён, Ли Юль, Ли Джу-вон, Но Сусанна

О фильме: По древнему поверью на горе Чан живёт тигр, который может изображать человеческий голос, чтобы приманивать людей.

Хи-ён с мужем и дочерью переезжают в отдалённо стоящий дом, где раньше жила их бабушка. Несколько лет назад семья потеряла сына — мальчик пропал, и так до сих пор не ясно, жив ли он, но Хи-ён не теряет надежды. Во время странного происшествия в лесу женщина встречает маленькую девочку, почти ровесницу своей дочери, и когда та позже приходит к ним в дом, безутешная мать не может не принять ребёнка, думая, что кто-то так же помог их сыну. Девочка оказывается странной — сначала молчит, а потом вдруг заговаривает голосом их дочери.



Небольшая реклама в титрах

Страна: Корея Южная
Продолжительность: 01:39:00
Перевод: Любительский (одноголосый) Хихикающий доктор

Файл
Формат: Matroska
Качество: HDRip 720p
Видео: 1280x720 (2.40:1), 29,970.000 fps, Baseline@L3 ~3000 kbps avg, 0.109 bit/pixel
Звук: 44.100 kHz, MPEG Layer 3, 2 ch, ~192.00 kbps avg rus

АНОНСЫ ПОПУЛЯРНЫХ РАЗДАЧ

Формат : Matroska
Версия формата : Version 4 / Version 2
Размер файла : 2,23 Гбайт
Продолжительность : 1 ч. 40 м.
Общий поток : 3194 Кбит/сек
Дата кодирования : UTC 2018-01-11 17:16:57
Программа кодирования : mkvmerge v8.3.0 ('Over the Horizon') 64bit
Библиотека кодирования : libebml v1.3.1 + libmatroska v1.4.2

Видео
Идентификатор : 1
Формат : AVC
Формат/Информация : Advanced Video Codec
Профиль формата : Baseline@L3
Настройки формата : 1 Ref Frames
Параметр CABAC формата : Нет
Параметр RefFrames формата : 1 кадр
Параметр GOP формата : M=1, N=30
Идентификатор кодека : V_MPEG4/ISO/AVC
Продолжительность : 1 ч. 39 м.
Битрейт : 3000 Кбит/сек
Ширина : 1280 пикселей
Высота : 720 пикселей
Соотношение сторон : 16:9
Режим частоты кадров : Постоянный
Частота кадров : 29,970 (29970/1000) кадров/сек
Цветовое пространство : YUV
Субдискретизация насыщенности : 4:2:0
Битовая глубина : 8 бит
Тип развёртки : Прогрессивная
Бит/(Пиксели*Кадры) : 0.109
Размер потока : 2,10 Гбайт (94%)
Библиотека кодирования : x264 core 116 r2074 2641b9e
Настройки программы : cabac=0 / ref=1 / deblock=1:0:0 / analyse=0x1:0x131 / me=dia / subme=3 / psy=1 / psy_rd=1.00:0.00 / mixed_ref=0 / me_range=16 / chroma_me=1 / trellis=1 / 8x8dct=0 / cqm=0 / deadzone=21,11 / fast_pskip=1 / chroma_qp_offset=0 / threads=6 / sliced_threads=0 / nr=0 / decimate=1 / interlaced=0 / bluray_compat=0 / constrained_intra=0 / bframes=0 / weightp=0 / keyint=30 / keyint_min=16 / scenecut=40 / intra_refresh=0 / rc_lookahead=30 / rc=abr / mbtree=1 / bitrate=3000 / ratetol=1.0 / qcomp=0.60 / qpmin=1 / qpmax=51 / qpstep=4 / ip_ratio=1.40 / aq=1:1.00
Default : Да
Forced : Нет

Аудио
Идентификатор : 2
Формат : MPEG Audio
Версия формата : Version 1
Профиль формата : Layer 3
Идентификатор кодека : A_MPEG/L3
Идентификатор кодека/Подсказка : MP3
Продолжительность : 1 ч. 40 м.
Вид битрейта : Постоянный
Битрейт : 192 Кбит/сек
Каналы : 2 канала
Частота : 44,1 КГц
Частота кадров : 38,281 кадров/сек (1152 SPF)
Метод сжатия : С потерями
Размер потока : 137 Мбайт (6%)
Default : Да
Forced : Нет



Скачать Мимик.Мимикрия.Mimic.Jang-san-beom.(Хо.Джон).[2017.ужасы.триллер.HDRip].[720p].[VO.(Xixidok)].torrent без регистрации
Золото ЗОЛОТАЯ РАЗДАЧА! СКАЧАННОЕ НЕ ЗАСЧИТЫВАЕТСЯ! Золото
Дата: Зарегистрирован   [ Тип: внутренний ] Как тут cкачать?
MAGNET ссылка
MAGNET ссылка


Скачать .torrent

12 KB

Статус: проверено DHT
Скачан: торрент - 49 раз, раздача полностью - 85 раз
Размер: 2,23 GB
Оценка:  - (Голосов: 0)
Поблагодарили: 4
Поделиться ссылкой на эту раздачу с друзьями:
В контактеFacebookОдноклассникиTwitterLivejournalМой МирLiveinternet
 

 
Показать сообщения:    


Вы не можете начинать темы
Вы не можете отвечать на сообщения
Вы не можете редактировать свои сообщения
Вы не можете удалять свои сообщения
Вы не можете голосовать в опросах
Вы не можете прикреплять файлы к сообщениям
Вы можете скачивать файлы