Loading...
Error

Скачать Бэтмен против Супермена: На заре справедливости / Batman v Superman: Dawn of Justice (Зак Снайдер) [2016, фантастика, фэнтези, боевик, приключения, UHD BDRemux] [2160p (4K HDR)] [Dub (Лицензия)]+[MVO (FocusStudi)]+3x[AVO]+2x[VO]+[Eng]+[Sub Rus, Eng] торрент без регистрации

Статистика раздачи
Размер:  119,48 GB   |    Скачан:  25 раз
Сидов:  1  [  0 KB/s  ]  
 
 
 
Автор Сообщение

МихаНЕзатор

[] 

Производство: США / Warner Bros. Pictures
Жанр: фантастика, боевик, приключения
Режиссер: Зак Снайдер
Продюсер: Чарльз Ровен, Дебора Снайдер, Тревор Кристи

Актеры: Джереми Айронс, Бен Аффлек, Генри Кавилл, Галь Гадот, Эми Адамс, Джесси Айзенберг, Дайан Лэйн, Лоренс Фишбёрн, Холли Хантер, Скут МакНэйри, Каллэн Мулвей, Тао Окамото, Брэндон Спинк.

Описание: Опасаясь, что действия богоподобного супергероя так и останутся бесконтрольными, грозный и могущественный страж Готэм Сити бросает вызов самому почитаемому в наши дни спасителю Метрополиса, в то время как весь остальной мир решает, какой герой ему по-настоящему нужен. И пока Бэтмен и Супермен пребывают в состоянии войны друг с другом, возникает новая угроза, которая ставит человечество под самую большую опасность, с которой оно когда-либо сталкивалось.



Релиз от: HDRINVASION, arxivariys
Продолжительность: 03:02:34 (Расширенная версия)
Качество: UHD BDRemux (HDR)
Перевод: Дублированный + вставки MVO на расширенные места, Профессиональный (многоголосый закадровый) (FocusStudio), Авторский (одноголосый, закадровый) (А. Гаврилов, Ю. Живов, А. Матвеев), Любительский (одноголосый, закадровый) (lord666, Е. Солодухин)
Субтитры: Русские (7 видов), английские (full, SDH)

Видео: HEVC/H.265, 3840x2160p, (16:9), 54,4 Мбит/сек, 23.976 fps
Аудио 1: DTS-HD MA, 8 ch, 5216 kbps - Русский, Дубляж + FocusStudio
Аудио 2: DTS-HD MA, 8 ch, 4395 kbps - Русский, FocusStudio
Аудио 3: DTS-HD MA, 8 ch, 4337 kbps - Русский, А. Гаврилов
Аудио 4: DTS-HD MA, 8 ch, 4406 kbps - Русский, Ю. Живов
Аудио 5: DTS-HD MA, 8 ch, 4285 kbps - Русский, lord666
Аудио 6: DTS-HD MA, 8 ch, 4378 kbps - Русский, Е. Солодухин
Аудио 7: DTS-HD MA, 8 ch, 4099 kbps - Русский, А. Матвеев, censored
Аудио 8: DTS-HD MA, 8 ch, 4099 kbps - Русский, А. Матвеев, uncensored
Аудио 9: DTS-HD MA, 8 ch, 4057 kbps - Английский

АНОНСЫ ПОПУЛЯРНЫХ РАЗДАЧ
Общее
Уникальный идентификатор : 187599176749784810377903980580502876682 (0x8D2249863B9AB4F3A0000842293DB20A)
Полное имя : G:HDБэтмен против Супермена. На заре справедливости.2016.UHD.BluRay.Remux.2160p.mkv
Формат : Matroska
Версия формата : Version 4 / Version 2
Размер файла : 119 Гбайт
Продолжительность : 3 ч. 2 м.
Общий поток : 93,7 Мбит/сек
Дата кодирования : UTC 2017-11-18 16:20:59
Программа кодирования : mkvmerge v18.0.0 ('Apricity') 64-bit
Библиотека кодирования : libebml v1.3.5 + libmatroska v1.4.8
Attachments : poster.jpg

Видео
Идентификатор : 1
Формат : HEVC
Формат/Информация : High Efficiency Video Coding
Профиль формата : Main 10@L5.1@High
Идентификатор кодека : V_MPEGH/ISO/HEVC
Продолжительность : 3 ч. 2 м.
Битрейт : 54,4 Мбит/сек
Ширина : 3840 пикселей
Высота : 2160 пикселей
Соотношение сторон : 16:9
Режим частоты кадров : Постоянный
Частота кадров : 23,976 (24000/1001) кадра/сек
Цветовое пространство : YUV
Субдискретизация насыщенности : 4:2:0 (Type 2)
Битовая глубина : 10 бит
Бит/(Пиксели*Кадры) : 0.274
Размер потока : 69,4 Гбайт (58%)
Библиотека кодирования : ATEME Titan KFE 3.7.3 (4.7.3.1003)
Default : Да
Forced : Нет
Цветовой диапазон : Limited
Основные цвета : BT.2020
Характеристики трансфера : PQ
Коэффициенты матрицы : BT.2020 non-constant
MasteringDisplay_ColorPrimaries : R: x=0.680000 y=0.320000, G: x=0.265000 y=0.690000, B: x=0.150000 y=0.060000, White point: x=0.312700 y=0.329000
MasteringDisplay_Luminance : min: 0.0050 cd/m2, max: 4000.0000 cd/m2
MaxCLL : 4000 cd/m2
MaxFALL : 1000 cd/m2

Аудио #1
Идентификатор : 2
Формат : DTS
Формат/Информация : Digital Theater Systems
Профиль формата : MA / Core
Идентификатор кодека : A_DTS
Продолжительность : 3 ч. 2 м.
Вид битрейта : Переменный / Постоянный
Битрейт : 5216 Кбит/сек / 1509 Кбит/сек
Каналы : 8 каналов / 6 каналов
Расположение каналов : Front: L C R, Side: L R, Back: L R, LFE / Front: L C R, Side: L R, LFE
Частота : 48,0 КГц
Частота кадров : 93,750 кадра/сек (512 SPF)
Битовая глубина : 24 бит
Метод сжатия : Без потерь / Lossy
Размер потока : 6,65 Гбайт (6%)
Заголовок : Dub + MVO, FocusStudio
Язык : Russian
Default : Да
Forced : Нет

Аудио #2
Идентификатор : 3
Формат : DTS
Формат/Информация : Digital Theater Systems
Профиль формата : MA / Core
Идентификатор кодека : A_DTS
Продолжительность : 3 ч. 2 м.
Вид битрейта : Переменный / Постоянный
Битрейт : 4395 Кбит/сек / 1509 Кбит/сек
Каналы : 8 каналов / 6 каналов
Расположение каналов : Front: L C R, Side: L R, Back: L R, LFE / Front: L C R, Side: L R, LFE
Частота : 48,0 КГц
Частота кадров : 93,750 кадра/сек (512 SPF)
Битовая глубина : 24 бит
Метод сжатия : Без потерь / Lossy
Размер потока : 5,60 Гбайт (5%)
Заголовок : MVO, FocusStudio
Язык : Russian
Default : Нет
Forced : Нет

Аудио #3
Идентификатор : 4
Формат : DTS
Формат/Информация : Digital Theater Systems
Профиль формата : MA / Core
Идентификатор кодека : A_DTS
Продолжительность : 3 ч. 2 м.
Вид битрейта : Переменный / Постоянный
Битрейт : 4337 Кбит/сек / 1509 Кбит/сек
Каналы : 8 каналов / 6 каналов
Расположение каналов : Front: L C R, Side: L R, Back: L R, LFE / Front: L C R, Side: L R, LFE
Частота : 48,0 КГц
Частота кадров : 93,750 кадра/сек (512 SPF)
Битовая глубина : 24 бит
Метод сжатия : Без потерь / Lossy
Размер потока : 5,53 Гбайт (5%)
Заголовок : А. Гаврилов
Язык : Russian
Default : Нет
Forced : Нет

Аудио #4
Идентификатор : 5
Формат : DTS
Формат/Информация : Digital Theater Systems
Профиль формата : MA / Core
Идентификатор кодека : A_DTS
Продолжительность : 3 ч. 2 м.
Вид битрейта : Переменный / Постоянный
Битрейт : 4406 Кбит/сек / 1509 Кбит/сек
Каналы : 8 каналов / 6 каналов
Расположение каналов : Front: L C R, Side: L R, Back: L R, LFE / Front: L C R, Side: L R, LFE
Частота : 48,0 КГц
Частота кадров : 93,750 кадра/сек (512 SPF)
Битовая глубина : 24 бит
Метод сжатия : Без потерь / Lossy
Размер потока : 5,62 Гбайт (5%)
Заголовок : Ю. Живов
Язык : Russian
Default : Нет
Forced : Нет

Аудио #5
Идентификатор : 6
Формат : DTS
Формат/Информация : Digital Theater Systems
Профиль формата : MA / Core
Идентификатор кодека : A_DTS
Продолжительность : 3 ч. 2 м.
Вид битрейта : Переменный / Постоянный
Битрейт : 4285 Кбит/сек / 1509 Кбит/сек
Каналы : 8 каналов / 6 каналов
Расположение каналов : Front: L C R, Side: L R, Back: L R, LFE / Front: L C R, Side: L R, LFE
Частота : 48,0 КГц
Частота кадров : 93,750 кадра/сек (512 SPF)
Битовая глубина : 24 бит
Метод сжатия : Без потерь / Lossy
Размер потока : 5,46 Гбайт (5%)
Заголовок : lord666
Язык : Russian
Default : Нет
Forced : Нет

Аудио #6
Идентификатор : 7
Формат : DTS
Формат/Информация : Digital Theater Systems
Профиль формата : MA / Core
Идентификатор кодека : A_DTS
Продолжительность : 3 ч. 2 м.
Вид битрейта : Переменный / Постоянный
Битрейт : 4378 Кбит/сек / 1509 Кбит/сек
Каналы : 8 каналов / 6 каналов
Расположение каналов : Front: L C R, Side: L R, Back: L R, LFE / Front: L C R, Side: L R, LFE
Частота : 48,0 КГц
Частота кадров : 93,750 кадра/сек (512 SPF)
Битовая глубина : 24 бит
Метод сжатия : Без потерь / Lossy
Размер потока : 5,58 Гбайт (5%)
Заголовок : Е. Солодухин
Язык : Russian
Default : Нет
Forced : Нет

Аудио #7
Идентификатор : 8
Формат : DTS
Формат/Информация : Digital Theater Systems
Профиль формата : MA / Core
Идентификатор кодека : A_DTS
Продолжительность : 3 ч. 2 м.
Вид битрейта : Переменный / Постоянный
Битрейт : 4099 Кбит/сек / 1509 Кбит/сек
Каналы : 8 каналов / 6 каналов
Расположение каналов : Front: L C R, Side: L R, Back: L R, LFE / Front: L C R, Side: L R, LFE
Частота : 48,0 КГц
Частота кадров : 93,750 кадра/сек (512 SPF)
Битовая глубина : 24 бит
Метод сжатия : Без потерь / Lossy
Размер потока : 5,23 Гбайт (4%)
Заголовок : А. Матвеев, censored
Язык : Russian
Default : Нет
Forced : Нет

Аудио #8
Идентификатор : 9
Формат : DTS
Формат/Информация : Digital Theater Systems
Профиль формата : MA / Core
Идентификатор кодека : A_DTS
Продолжительность : 3 ч. 2 м.
Вид битрейта : Переменный / Постоянный
Битрейт : 4099 Кбит/сек / 1509 Кбит/сек
Каналы : 8 каналов / 6 каналов
Расположение каналов : Front: L C R, Side: L R, Back: L R, LFE / Front: L C R, Side: L R, LFE
Частота : 48,0 КГц
Частота кадров : 93,750 кадра/сек (512 SPF)
Битовая глубина : 24 бит
Метод сжатия : Без потерь / Lossy
Размер потока : 5,23 Гбайт (4%)
Заголовок : А. Матвеев, uncensored
Язык : Russian
Default : Нет
Forced : Нет

Аудио #9
Идентификатор : 10
Формат : DTS
Формат/Информация : Digital Theater Systems
Профиль формата : MA / Core
Идентификатор кодека : A_DTS
Продолжительность : 3 ч. 2 м.
Вид битрейта : Переменный / Постоянный
Битрейт : 4057 Кбит/сек / 1509 Кбит/сек
Каналы : 8 каналов / 6 каналов
Расположение каналов : Front: L C R, Side: L R, Back: L R, LFE / Front: L C R, Side: L R, LFE
Частота : 48,0 КГц
Частота кадров : 93,750 кадра/сек (512 SPF)
Битовая глубина : 24 бит
Метод сжатия : Без потерь / Lossy
Размер потока : 5,17 Гбайт (4%)
Язык : English
Default : Нет
Forced : Нет

Текст #1
Идентификатор : 11
Формат : UTF-8
Идентификатор кодека : S_TEXT/UTF8
Идентификатор кодека/Информация : UTF-8 Plain Text
Продолжительность : 3 ч. 1 м.
Битрейт : 4 бит/сек
ElementCount : 125
Размер потока : 6,13 Кбайт (0%)
Заголовок : forced
Язык : Russian
Default : Да
Forced : Нет

Текст #2
Идентификатор : 12
Формат : UTF-8
Идентификатор кодека : S_TEXT/UTF8
Идентификатор кодека/Информация : UTF-8 Plain Text
Продолжительность : 3 ч. 2 м.
Битрейт : 64 бит/сек
ElementCount : 1634
Размер потока : 85,9 Кбайт (0%)
Заголовок : full
Язык : Russian
Default : Нет
Forced : Нет

Текст #3
Идентификатор : 13
Формат : UTF-8
Идентификатор кодека : S_TEXT/UTF8
Идентификатор кодека/Информация : UTF-8 Plain Text
Продолжительность : 2 ч. 54 м.
Битрейт : 68 бит/сек
ElementCount : 1425
Размер потока : 88,0 Кбайт (0%)
Заголовок : А. Кисиленко
Язык : Russian
Default : Нет
Forced : Нет

Текст #4
Идентификатор : 14
Формат : UTF-8
Идентификатор кодека : S_TEXT/UTF8
Идентификатор кодека/Информация : UTF-8 Plain Text
Продолжительность : 2 ч. 54 м.
Битрейт : 67 бит/сек
ElementCount : 1524
Размер потока : 86,9 Кбайт (0%)
Заголовок : Е. Воронин, full
Язык : Russian
Default : Нет
Forced : Нет

Текст #5
Идентификатор : 15
Формат : UTF-8
Идентификатор кодека : S_TEXT/UTF8
Идентификатор кодека/Информация : UTF-8 Plain Text
Продолжительность : 2 ч. 54 м.
Битрейт : 77 бит/сек
ElementCount : 1870
Размер потока : 99,3 Кбайт (0%)
Заголовок : Е. Воронин, SDH
Язык : Russian
Default : Нет
Forced : Нет

Текст #6
Идентификатор : 16
Формат : UTF-8
Идентификатор кодека : S_TEXT/UTF8
Идентификатор кодека/Информация : UTF-8 Plain Text
Продолжительность : 2 ч. 59 м.
Битрейт : 62 бит/сек
ElementCount : 1060
Размер потока : 82,5 Кбайт (0%)
Заголовок : А. Матвеев, censored
Язык : Russian
Default : Нет
Forced : Нет

Текст #7
Идентификатор : 17
Формат : UTF-8
Идентификатор кодека : S_TEXT/UTF8
Идентификатор кодека/Информация : UTF-8 Plain Text
Продолжительность : 2 ч. 59 м.
Битрейт : 62 бит/сек
ElementCount : 1060
Размер потока : 82,5 Кбайт (0%)
Заголовок : А. Матвеев, uncensored
Язык : Russian
Default : Нет
Forced : Нет

Текст #8
Идентификатор : 18
Формат : UTF-8
Идентификатор кодека : S_TEXT/UTF8
Идентификатор кодека/Информация : UTF-8 Plain Text
Продолжительность : 3 ч. 2 м.
Битрейт : 41 бит/сек
ElementCount : 1915
Размер потока : 56,0 Кбайт (0%)
Заголовок : full
Язык : English
Default : Нет
Forced : Нет

Текст #9
Идентификатор : 19
Формат : UTF-8
Идентификатор кодека : S_TEXT/UTF8
Идентификатор кодека/Информация : UTF-8 Plain Text
Продолжительность : 3 ч. 2 м.
Битрейт : 43 бит/сек
ElementCount : 1915
Размер потока : 58,7 Кбайт (0%)
Заголовок : SDH
Язык : English
Default : Нет
Forced : Нет

Меню
00:00:00.000 : en:00:00:00.000
00:10:10.652 : en:00:10:10.652
00:27:00.661 : en:00:27:00.661
00:37:49.225 : en:00:37:49.225
00:46:54.520 : en:00:46:54.520
01:02:04.971 : en:01:02:04.971
01:14:10.613 : en:01:14:10.613
01:28:07.115 : en:01:28:07.115
01:41:46.642 : en:01:41:46.642
01:53:52.617 : en:01:53:52.617
02:02:58.079 : en:02:02:58.079
02:15:04.054 : en:02:15:04.054
02:27:55.075 : en:02:27:55.075
02:36:51.444 : en:02:36:51.444
02:48:28.348 : en:02:48:28.348
02:54:43.765 : en:02:54:43.765



Скачать Бэтмен.против.Супермена.На.заре.справедливости.Batman.v.Superman.Dawn.of.Justice.(Зак.Снайдер).[2016.фантастика.фэнтези.боевик.приключения.UHD.BDRemux].[2160p.(4K.HDR)].[Dub.(Лицензия)]+[MVO.(FocusStudi)]+3x[AVO]+2x[VO]+[Eng]+[Sub.Rus.Eng].torrent без регистрации
Золото ЗОЛОТАЯ РАЗДАЧА! СКАЧАННОЕ НЕ ЗАСЧИТЫВАЕТСЯ! Золото
Дата: Зарегистрирован   [ Тип: внутренний ] Как тут cкачать?
MAGNET ссылка
MAGNET ссылка


Скачать .torrent

300 KB

Статус: проверено DHT
Скачан: торрент - 25 раз, раздача полностью - 2 раз
Размер: 119,48 GB
Оценка:  - (Голосов: 0)
Поблагодарили: 1
Поделиться ссылкой на эту раздачу с друзьями:
В контактеFacebookОдноклассникиTwitterLivejournalМой МирLiveinternet
 

 
Показать сообщения:    


Вы не можете начинать темы
Вы не можете отвечать на сообщения
Вы не можете редактировать свои сообщения
Вы не можете удалять свои сообщения
Вы не можете голосовать в опросах
Вы не можете прикреплять файлы к сообщениям
Вы можете скачивать файлы