Loading...
Error

Скачать Секретные материалы / The X-Files (11x01-06 из 10) (Ким Мэннерс и др.) [2018, фантастика, триллер, драма, WEB-DLRip] [720p] [MVO (OMSKBIRD)] торрент без регистрации

Статистика раздачи
Размер:  5,77 GB   |    Скачан:  32 раза
Сидов:  1  [  0 KB/s  ]  
 
 
 
Автор Сообщение

МихаНЕзатор

[] 

Информация о фильме
Название: Секретные материалы
Оригинальное название: The X Files
Год выхода: 2018
Жанр: фантастика, триллер, драма
Режиссер: Ким Мэннерс, Роб Боумен, Дэвид Наттер

В ролях: Джиллиан Андерсон, Дэвид Духовны, Митч Пилледжи, Уильям Б. Дэвис, Аннабет Гиш, Робби Амелл, Лорен Эмброуз и др.

О фильме: Агенты ФБР Малдер и Скалли продолжают исследовать странные и необъяснимые события нашего мира.



Страна: США
Продолжительность: ~ 44 мин. серия
Перевод: Любительский (многоголосый закадровый) | OMSKBIRD

Файл
Кодек: MPEG-4 AVC
Качество: WEBRip 720p
Видео: AVC, 1280x720 (16:9), 23.976 fps, ~ 3000 kbps
Звук: Аудио rus: AC-3, 48 KHz, 2 ch, 192 kbps | OMSKBIRD records

АНОНСЫ ПОПУЛЯРНЫХ РАЗДАЧ


Торрент обновлён, добавлена 6-я серия!
General
Unique ID : 195140489650388921627075912861614147933 (0x92CEB0F4F95A772A9F85F322A9F1095D)
Complete name : H:Мои ДокументыВидеоРАЗДАЧИИКС-ФАЙЛСThe X-Files S11 WEB-DLRip 720p (OMSKBIRD)The X-Files S11E01 WEB-DLRip 720p (OMSKBIRD).mkv
Format : Matroska
Format version : Version 2
File size : 945 MiB
Duration : 42 min 41 s
Overall bit rate : 3 095 kb/s
Encoded date : UTC 2018-01-04 19:22:59
Writing application : mkvmerge v4.0.0 ('The Stars were mine') сборка от Jun 6 2010 16:18:42
Writing library : libebml v1.0.0 + libmatroska v1.0.0

Video
ID : 1
Format : AVC
Format/Info : Advanced Video Codec
Format profile : Baseline@L3.2
Format settings, CABAC : No
Format settings, RefFrames : 3 frames
Format settings, GOP : M=1, N=23
Codec ID : V_MPEG4/ISO/AVC
Duration : 42 min 41 s
Bit rate : 2 841 kb/s
Width : 1 280 pixels
Height : 720 pixels
Display aspect ratio : 16:9
Frame rate mode : Constant
Frame rate : 23.976 (24000/1001) FPS
Standard : NTSC
Color space : YUV
Chroma subsampling : 4:2:0
Bit depth : 8 bits
Scan type : Progressive
Bits/(Pixel*Frame) : 0.129
Stream size : 867 MiB (92%)
Language : English
Default : Yes
Forced : No
Color range : Limited
Color primaries : BT.709
Transfer characteristics : BT.709
Matrix coefficients : BT.709

Audio
ID : 2
Format : AC-3
Format/Info : Audio Coding 3
Format settings, Endianness : Big
Codec ID : A_AC3
Duration : 42 min 41 s
Bit rate mode : Constant
Bit rate : 192 kb/s
Channel(s) : 2 channels
Channel positions : Front: L R
Sampling rate : 48.0 kHz
Frame rate : 31.250 FPS (1536 SPF)
Bit depth : 16 bits
Compression mode : Lossy
Stream size : 58.6 MiB (6%)
Service kind : Complete Main
Default : Yes
Forced : No
Внимание! Раздача ведётся путём добавления новых серий; при каждом добавлении создаётся новый торрент. Чтобы начать докачку новой серии, пользователям необходимо сделать следующее:
Остановить скачивание.
Удалить старый торрент у себя из клиента (старые серии удалять не надо).
Скачать новый торрент и запустить его у себя в клиенте вместо старого, при этом указать клиенту путь в старую папку куда и должно происходить скачивание новых серий.
Ваш клиент при этом должен произвести хеширование (проверку) старой папки (если не производит сам - помогите ему сделать это), и будет докачивать только те серии которых у вас ещё нет. Старые серии при этом не удаляются, а продолжают раздаваться!
Eсли вы уже удалили старые серии, то предотвратить повторную закачку старых серий можно, отжав галочку в соответсвующих местах при запуске нового торрента. По возможности, желательно не удалять старые серии как можно дольше чтобы релизёр не столько продолжал раздавать старые серии, а смог сконцентрироваться на новых.



Скачать Секретные.материалы.The.X-Files.(11x01-06.из.10).(Ким.Мэннерс.и.др.).[2018.фантастика.триллер.драма.WEB-DLRip].[720p].[MVO.(OMSKBIRD)].torrent без регистрации
Золото ЗОЛОТАЯ РАЗДАЧА! СКАЧАННОЕ НЕ ЗАСЧИТЫВАЕТСЯ! Золото
Дата: Зарегистрирован   [ Тип: внутренний ] Как тут cкачать?
MAGNET ссылка
MAGNET ссылка


Скачать .torrent

16 KB

Статус: проверено DHT
Скачан: торрент - 32 раз, раздача полностью - 0 раз
Размер: 5,77 GB
Оценка:  - (Голосов: 0)
Поблагодарили: 0
Поделиться ссылкой на эту раздачу с друзьями:
В контактеFacebookОдноклассникиTwitterLivejournalМой МирLiveinternet
 

 
Показать сообщения:    


Вы не можете начинать темы
Вы не можете отвечать на сообщения
Вы не можете редактировать свои сообщения
Вы не можете удалять свои сообщения
Вы не можете голосовать в опросах
Вы не можете прикреплять файлы к сообщениям
Вы можете скачивать файлы