Loading...
Error

Скачать Лунный камень / The Moonstone (01-05 из 05) (Лиза Мулкахи) [2016, детектив, криминал, HDTVRip] [720р] [DVO (Культура)]+[Eng]+[Sub Rus, Eng] торрент без регистрации

Статистика раздачи
Размер:  3,47 GB   |    Скачан:  20 раз
Сидов:  1  [  0 KB/s  ]  
 
 
 
Автор Сообщение

МихаНЕзатор

[] 

Лунный камень / The Moonstone


Страна: Великобритания
Производство: King Bert Productions
Год выпуска: 2016
Сезон: 1
Жанр: детектив, криминал
Режиссер: Лиза Мулкахи
Авторы сценария: Уилки Коллинз, Рэйчел Флауердэй, Саша Эл

В ролях: Джошуа Сильвер, Лео Рингер, Терения Эдвардс, Низа Коул, Стюарт Кларк, Мадхав Шарма, Дэвид Колдер, Джон Томсон, Джереми Свифт

Описание: В последний год восемнадцатого столетия полковник Джон Хернкасл похитил в Индии священный жёлтый бриллиант исключительной ценности, украшавший чело бога Луны в одном из индийских храмов. Великий бог-хранитель Вишну проклял вора, повелев трём жрецам искать Лунный камень до скончания веков. Но коварный полковник сумел тайком увезти камень в Англию. Он завещал бриллиант своей племяннице, юной красавице мисс Рэйчел Вериндер. А мистеру Франклину Блейку, как галантному кавалеру было поручено доставить его своей кузине. Рэйчел была очарована своим бриллиантом. Она пожелала оставить его на ночь в своём секретере, однако ночью камень исчез...

Дата премьеры (мир): 31 октября 2016



Продолжительность: 5х ~00:44:00
Перевод: Профессиональный (двухголосый, закадровый) | Культура
Субтитры: русские, английские
Качество: HDTVRip 720р
Формат: МКV
Видео кодек: AVC
Аудио кодек: АС3
Видео: 1280x720 (16:9), 25.000 fps, MPEG-4 AVC ~2 100 kbps avg
Аудио №1: 48.0 kHz, AC3 Dolby Digital, 2/0 (L,R) ch, ~192 kbps | RUS
Аудио №2: 48.0 kHz, AC3 Dolby Digital, 2/0 (L,R) ch, ~192 kbps | ENG
Формат субтитров: UTF-8 Plain Text

АНОНСЫ ПОПУЛЯРНЫХ РАЗДАЧ
General
Уникальный идентификатор : 95630814137818587344422848890522005044 (0x47F1D329B97984A99F573939DA7B6E34)
Полное имя : the.moonstone.s01e04.720p.hdtv.mkv
Формат : Matroska
Версия формата : Version 4 / Version 2
Размер файла : 759 Мбайт
Продолжительность : 43 м. 31 с.
Общий поток : 2437 Кбит/сек
Дата кодирования : UTC 2018-01-12 06:48:01
Программа кодирования : mkvmerge v19.0.0 ('Brave Captain') 32-bit
Библиотека кодирования : libebml v1.3.5 + libmatroska v1.4.8

Видео
Идентификатор : 1
Формат : AVC
Формат/Информация : Advanced Video Codec
Профиль формата : High@L4.1
Настройки формата : CABAC / 5 Ref Frames
Параметр CABAC формата : Да
Параметр RefFrames формата : 5 кадров
Идентификатор кодека : V_MPEG4/ISO/AVC
Продолжительность : 43 м. 11 с.
Битрейт : 2066 Кбит/сек
Ширина : 1280 пикселей
Высота : 720 пикселей
Соотношение сторон : 16:9
Режим частоты кадров : Постоянный
Частота кадров : 25,000 кадров/сек
Цветовое пространство : YUV
Субдискретизация насыщенности : 4:2:0
Битовая глубина : 8 бит
Тип развёртки : Прогрессивная
Бит/(Пиксели*Кадры) : 0.090
Размер потока : 638 Мбайт (84%)
Библиотека кодирования : x264 core 148 r2721 72d53ab
Настройки программы : cabac=1 / ref=5 / deblock=1:0:0 / analyse=0x3:0x113 / me=hex / subme=8 / psy=1 / psy_rd=1.00:0.00 / mixed_ref=1 / me_range=16 / chroma_me=1 / trellis=2 / 8x8dct=1 / cqm=0 / deadzone=21,11 / fast_pskip=1 / chroma_qp_offset=-2 / threads=24 / lookahead_threads=4 / sliced_threads=0 / nr=0 / decimate=1 / interlaced=0 / bluray_compat=0 / constrained_intra=0 / bframes=3 / b_pyramid=2 / b_adapt=1 / b_bias=0 / direct=3 / weightb=1 / open_gop=0 / weightp=2 / keyint=250 / keyint_min=25 / scenecut=40 / intra_refresh=0 / rc_lookahead=50 / rc=crf / mbtree=1 / crf=18.0 / qcomp=0.60 / qpmin=0 / qpmax=69 / qpstep=4 / ip_ratio=1.40 / aq=1:1.00
Язык : English
Default : Да
Forced : Нет
Цветовой диапазон : Limited
Коэффициенты матрицы : BT.709

Аудио #1
Идентификатор : 2
Формат : AC-3
Формат/Информация : Audio Coding 3
Идентификатор кодека : A_AC3
Продолжительность : 43 м. 31 с.
Вид битрейта : Постоянный
Битрейт : 192 Кбит/сек
Каналы : 2 канала
Расположение каналов : Front: L R
Частота : 48,0 КГц
Частота кадров : 31,250 кадров/сек (1536 SPF)
Битовая глубина : 16 бит
Метод сжатия : С потерями
Размер потока : 59,8 Мбайт (8%)
Заголовок : DVO Kultura
Язык : Russian
Default : Да
Forced : Нет

Аудио #2
Идентификатор : 3
Формат : AC-3
Формат/Информация : Audio Coding 3
Идентификатор кодека : A_AC3
Продолжительность : 43 м. 31 с.
Вид битрейта : Постоянный
Битрейт : 192 Кбит/сек
Каналы : 2 канала
Расположение каналов : Front: L R
Частота : 48,0 КГц
Частота кадров : 31,250 кадров/сек (1536 SPF)
Битовая глубина : 16 бит
Метод сжатия : С потерями
Размер потока : 59,8 Мбайт (8%)
Язык : English
Default : Нет
Forced : Нет

Текст #1
Идентификатор : 4
Формат : UTF-8
Идентификатор кодека : S_TEXT/UTF8
Идентификатор кодека/Информация : UTF-8 Plain Text
Продолжительность : 42 м. 40 с.
Битрейт : 123 бит/сек
ElementCount : 584
Размер потока : 38,5 Кбайт (0%)
Язык : Russian
Default : Нет
Forced : Нет

Текст #2
Идентификатор : 5
Формат : UTF-8
Идентификатор кодека : S_TEXT/UTF8
Идентификатор кодека/Информация : UTF-8 Plain Text
Продолжительность : 42 м. 38 с.
Битрейт : 78 бит/сек
ElementCount : 599
Размер потока : 24,5 Кбайт (0%)
Язык : English
Default : Нет
Forced : Нет



Скачать Лунный.камень.The.Moonstone.(01-05.из.05).(Лиза.Мулкахи).[2016.детектив.криминал.HDTVRip].[720р].[DVO.(Культура)]+[Eng]+[Sub.Rus.Eng].torrent без регистрации
Золото ЗОЛОТАЯ РАЗДАЧА! СКАЧАННОЕ НЕ ЗАСЧИТЫВАЕТСЯ! Золото
Дата: Зарегистрирован   [ Тип: внутренний ] Как тут cкачать?
MAGNET ссылка
MAGNET ссылка


Скачать .torrent

19 KB

Статус: проверено DHT
Скачан: торрент - 20 раз, раздача полностью - 8 раз
Размер: 3,47 GB
Оценка:  - (Голосов: 0)
Поблагодарили: 0
Поделиться ссылкой на эту раздачу с друзьями:
В контактеFacebookОдноклассникиTwitterLivejournalМой МирLiveinternet
 

 
Показать сообщения:    


Вы не можете начинать темы
Вы не можете отвечать на сообщения
Вы не можете редактировать свои сообщения
Вы не можете удалять свои сообщения
Вы не можете голосовать в опросах
Вы не можете прикреплять файлы к сообщениям
Вы можете скачивать файлы