Loading...
Error

Скачать Берегись автомобиля (Эльдар Рязанов) [1966, мелодрама, комедия, WEB-DLRip] [720p] [Цветная версия] торрент без регистрации

Статистика раздачи
Размер:  5,41 GB   |    Скачан:  33 раза
Сидов:  12  [  0 KB/s  ]  
 
 
 
Автор Сообщение

Marsianka

[] 

Берегись автомобиля


Год выпуска: 1966
Жанр: мелодрама, комедия
Выпущено: СССР, Мосфильм
Продолжительность: 01:34:00
Перевод: Не требуется

Режиссер: Эльдар Рязанов
В ролях: Иннокентий Смоктуновский, Олег Ефремов (I), Андрей Миронов, Анатолий Папанов, Любовь Добржанская, Ольга Аросева, Георгий Жжёнов, Татьяна Гаврилова, Евгений Евстигнеев, Донатас Банионис, Любовь Соколова, Антонина Максимова, Вячеслав Невинный ст., Сергей Кулагин, Яков Ленц, Виктория Радунская, Готлиб Ронинсон, Борис Рунге, Галина Волчек, Антонина Дмитриева, Нина Крачковская, Алексей Коренев, Николай Парфёнов

О фильме: Эта удивительная история вполне может считаться фантастической. Скромный и застенчивый страховой агент, актер самодеятельного театра Юрий Деточкин оказывается непримиримым борцом за справедливость. Правда, для правосудия, представляемого актером того же театра, а в миру - следователем Подберезовиковым, этот Робин Гуд представляется опасным, хитроумным, изобретательным и неуловимым преступником.



Качество: WEB-DLRip 720p
Видео: MPEG-4 AVC, 984x718, 23.976 fps, 7621 Kbps
Аудио: АС3, 6 ch, 448 Кбит/с
Субтитры: Нет
Исходниом послужил WEB-DL 1080, ибо в HDTV 1080i болячек не меньше, но главное что тут наполнение кадра в разы больше.
Бандинг, дыры и прочее, были закрыты, желтизна, засветы и старина плёнки тоже убраны с учётом домашней обработки, а не на студии.
Первоначально на роль Деточкина планировался Юрий Никулин, но он вместе с цирком отправился на гастроли в Южную Африку почти на полгода. В результате на роль Деточкина пробовался Олег Ефремов, но в итоге ее отдали Иннокентию Смоктуновскому, а Ефремов сыграл роль Максима Подберезовикова. На роль Деточкина также пробовались Леонид Куравлёв, Леонид Быков, Василий Лановой, Александр Белявский, Михаил Державин.
Мосфильмовская «Волга» ГАЗ-21, на которой Деточкин ушел от погони, впоследствии стала знаменитым «такси на Дубровку» Папанова (только перекрашенным) в фильме «Бриллиантовая рука» (1968) и машиной-такси героя Ефремова в фильме ««Три тополя» на Плющихе» (1967).
Вальс, звучащий во время погони милиционера за Деточкиным, использует музыкальную фразу из песни «Padam… Padam…». Эта мелодия композитора Андрея Петрова одна из наиболее известных и узнаваемых в мире музыки кино. В репертуаре Сергея Никитина есть песня «Стеклянный Господин» (на стихи Евгения Евтушенко) использующая мотив вальса из фильма «Берегись автомобиля».
В этом фильме Деточкин (Смоктуновский) играет Гамлета в самодеятельности. Примечательно, что Иннокентий Смоктуновский к тому времени уже блестяще сыграл Гамлета в одноименном фильме. Постановка театра самодеятельности использует другой перевод пьесы, М. Лозинского, а не Б. Пастернака.
В эпизоде, где «Волга» Деточкина во время погони задним ходом выезжает с крутой обочины на дорогу, если приглядеться, заметен трос, который вытягивает машину.
В сцене погони Деточкин на большой скорости справа объезжает препятствия в виде стоящего на дороге грузовика (возле него никого нет) и движущегося навстречу автобуса. В следующий миг видно, что грузовик стоит на обочине, а водитель накачивает колесо.
Когда происходит беседа Деточкина с милиционером и тот жалуется на плохой аккумулятор, бордюры то покрашены «в зебру», то нет.
В начале фильма закадровый голос автора утверждает, что не известно в каком городе происходят события. Однако, в сцене беседы в пивбаре, Деточкин произносит фразу о том, что после продажи одной из угнанных машин, он вернулся в… Москву. Следовательно, события фильма разворачиваются в Москве.
Мамой Деточкина в фильме хотели стать актрисы Зелёная и Мансурова, но наиболее убедительная проба получилась у Любови Добржанской.
Специально для съёмок Смоктуновский по настоянию режиссёра сдал на водительские права.
На роль Подберёзовикова пробовались Пётр Щербаков, Алексей Эйбоженко, Олег Борисов, Юрий Яковлев (впоследствий он остался в картине, как «голос за кадром»).
На роль Димы Семицветова пробовались Юрий Белов и Владимир Балон.

x264 [info]: frame I:682 Avg QP:18.18 size:137727
x264 [info]: frame P:27160 Avg QP:19.87 size: 80648
x264 [info]: frame B:107387 Avg QP:21.86 size: 29872
x264 [info]: consecutive B-frames: 1.0% 1.6% 4.8% 16.3% 23.0% 43.7% 5.6% 1.4% 1.5% 0.7% 0.3%

Общее
Уникальный идентификатор : 188078215502661300744898077521513405556 (0x8D7E8BF5572BB878BC5A304625B1DC74)
Полное имя : D:Берегись автомобиля_1966-WEB-DLRip 720p_KORSAR.mkv
Формат : Matroska
Версия формата : Version 2
Размер файла : 5,41 Гбайт
Продолжительность : 1 ч. 34 м.
Общий поток : 8232 Кбит/сек
Название фильма : Берегись автомобиля_1966-WEB-DLRip 720p_KORSAR
Дата кодирования : UTC 2018-01-11 13:17:21
Программа кодирования : mkvmerge v5.8.0 ('No Sleep / Pillow') built on Sep 2 2012 15:37:04
Библиотека кодирования : libebml v1.2.3 + libmatroska v1.3.0

Видео
Идентификатор : 1
Формат : AVC
Формат/Информация : Advanced Video Codec
Профиль формата : High@L4.1
Параметр CABAC формата : Да
Параметр RefFrames формата : 11 кадров
Идентификатор кодека : V_MPEG4/ISO/AVC
Продолжительность : 1 ч. 34 м.
Битрейт : 7621 Кбит/сек
Ширина : 984 пикселя
Высота : 718 пикселей
Соотношение сторон : 1,370
Режим частоты кадров : Постоянный
Частота кадров : 23,976 (24000/1001) кадра/сек
Цветовое пространство : YUV
Субдискретизация насыщенности : 4:2:0
Битовая глубина : 8 бит
Тип развёртки : Прогрессивная
Бит/(Пиксели*Кадры) : 0.450
Размер потока : 5,00 Гбайт (93%)
Библиотека кодирования : x264 core 148 r2744kMod b97ae06
Настройки программы : cabac=1 / ref=11 / deblock=1:-2:-1 / analyse=0x3:0x113 / me=umh / subme=10 / psy=1 / fade_compensate=0.00 / psy_rd=1.05:0.10 / mixed_ref=1 / me_range=48 / chroma_me=1 / trellis=2 / 8x8dct=1 / cqm=0 / deadzone=21,11 / fast_pskip=1 / chroma_qp_offset=-3 / threads=12 / lookahead_threads=3 / sliced_threads=0 / nr=0 / decimate=1 / interlaced=0 / bluray_compat=0 / constrained_intra=0 / bframes=10 / b_pyramid=2 / b_adapt=2 / b_bias=0 / direct=1 / weightb=1 / open_gop=0 / weightp=2 / keyint=240 / keyint_min=23 / scenecut=40 / intra_refresh=0 / rc_lookahead=40 / rc=crf / mbtree=0 / crf=18.5000 / qcomp=0.63 / qpmin=0 / qpmax=39 / qpstep=4 / vbv_maxrate=50000 / vbv_bufsize=62500 / crf_max=0.0 / nal_hrd=none / filler=0 / ip_ratio=1.40 / pb_ratio=1.30 / aq=2:0.90
Язык : English
Default : Да
Forced : Нет
Цветовой диапазон : Limited
Основные цвета : BT.709
Характеристики трансфера : BT.709
Коэффициенты матрицы : BT.709

Аудио
Идентификатор : 2
Формат : AC-3
Формат/Информация : Audio Coding 3
Параметр Endianness формата : Big
Идентификатор кодека : A_AC3
Продолжительность : 1 ч. 34 м.
Вид битрейта : Постоянный
Битрейт : 448 Кбит/сек
Каналы : 6 каналов
Расположение каналов : Front: L C R, Side: L R, LFE
Частота : 48,0 КГц
Частота кадров : 31,250 кадров/сек (1536 SPF)
Битовая глубина : 16 бит
Метод сжатия : С потерями
Размер потока : 301 Мбайт (5%)
Язык : Russian
Default : Да
Forced : Нет



Скачать Берегись.автомобиля.(Эльдар.Рязанов).[1966.мелодрама.комедия.WEB-DLRip].[720p].[Цветная.версия].torrent без регистрации
Золото ЗОЛОТАЯ РАЗДАЧА! СКАЧАННОЕ НЕ ЗАСЧИТЫВАЕТСЯ! Золото
Дата: Зарегистрирован   [ Тип: внешний ] Как тут cкачать?
MAGNET ссылка
MAGNET ссылка


Скачать .torrent

28 KB

Статус: проверено DHT
Скачан: торрент - 33 раз, раздача полностью - 40 раз
Размер: 5,41 GB
Оценка:  - (Голосов: 0)
Поблагодарили: 1
Поделиться ссылкой на эту раздачу с друзьями:
В контактеFacebookОдноклассникиTwitterLivejournalМой МирLiveinternet
 

 
Показать сообщения:    


Вы не можете начинать темы
Вы не можете отвечать на сообщения
Вы не можете редактировать свои сообщения
Вы не можете удалять свои сообщения
Вы не можете голосовать в опросах
Вы не можете прикреплять файлы к сообщениям
Вы можете скачивать файлы