Loading...
Error

Скачать BBC: Голубая планета 2 / Blue Planet II [S01] (Дэвид Аттенборо) [2017, документальный, BDRip] [1080p] [AVO]+[MVO]+[VO] торрент без регистрации

Статистика раздачи
Размер:  40,02 GB   |    Скачан:  33 раза
Сидов:  1  [  0 KB/s  ]  
 
 
 
Автор Сообщение

Marsianka

[] 



Информация о фильме
Название: Голубая планета 2
Оригинальное название: Blue Planet II
Год выпуска: 2017
Жанр: документальный
Режиссер: -
В ролях: Дэвид Аттенборо

О фильме:
Сделайте глубокий вдох – легендарный телеведущий Николай Дроздов под музыку Ханса Циммера отправляет нас в новое захватывающее путешествие в волшебный мир океанов. Появление первой «Голубой планеты» в 2001 году полностью изменило наши представления о подводном мире. Почти два десятилетия спустя прогрессивные технологии позволяют проникнуть еще дальше и глубже, чем когда-либо прежде. Смелый кинематографический опыт, занявший более 4-х лет, включает 125 экспедиций в 39 странах, более 6 000 часов подводных съемок и 4 000 погружений. От ледяных вод полярных морей до уходящих в бездонную синеву коралловых рифов – нас снова ждут фантастические открытия. Скрывающиеся в глубинах Антарктиды осьминоги, воздушная охота гигантского каранкса на птиц, атакующая жертву акула-молот и многие другие харизматичные персонажи – удивление и восторг!



Страна: Великобритания
Студия: BBC Natural History Unit
Продолжительность: ~00:58:00 серия
Профессиональный (одноголосый, закадровый) Н.Дроздов + Любительский (многоголосый, закадровый) ColdFilm
+ Любительский (одноголосый, закадровый) Jimmy J.
Субтитры: отсутствуют
Файл
Качество: BDRip 1080p
Формат: MKV
Видео: AVC, 1920х1080, 25.000 FPS , 9.2-16.3 Mb/s, 0.278bpp
Аудио: AC3, 2 ch,48 KHz, 384 Kbps [Н.Дроздов + Jimmy J. (1-2) / ColdFilm (3-7)]
Аудио: AC3, 6 ch, 48 KHz ,640 Kb/s [Jimmy J] [1-2 серия]
Аудио: AC3, 2 ch, 48 KHz ,192 Kbps [ColdFilm]


01. Один океан / One Ocean
02. Глубоководье / The Deep
03. Коралловые рифы / Coral Reefs
04. Большой синий / Big Blue
05. Зеленые моря / Green Seas
06. Побережье / Coasts
07. Наша голубая Планета / Our Blue Planet
Анонс сериала с рабочим названием "Мировые океаны" был сделан еще в 2013 году, но название было позже изменено на "Голубая планета 2". Проект снимался больше четырех лет, включая 125 экспедиций в 39 странах и более 6000 часов проведенных под водой.
В оригинале, рассказчиком за кадром снова вернулся 91-летний сэр Дэвид Аттенборо, один из самых знаменитых в мире телеведущих и натуралистов, а саундтрек написал легендарный композитор Ханс Циммер.
==========================================================================
x264log 1серия
x264 [info]: frame I:553 Avg QP:16.34 size:234278
x264 [info]: frame P:24364 Avg QP:19.10 size:117281
x264 [info]: frame B:61883 Avg QP:20.56 size: 52785
x264 [info]: consecutive B-frames: 2.1% 2.9% 35.6% 34.4% 16.1% 8.9%
x264 [info]: mb I I16..4: 8.0% 85.3% 6.7%
x264 [info]: mb P I16..4: 4.8% 38.5% 2.6% P16..4: 30.4% 14.1% 7.3% 0.0% 0.0% skip: 2.4%
x264 [info]: mb B I16..4: 1.2% 7.7% 0.5% B16..8: 36.4% 11.1% 3.0% direct:13.0% skip:27.1% L0:38.1% L1:34.5% BI:27.5%
x264 [info]: 8x8 transform intra:83.3% inter:71.1%
x264 [info]: direct mvs spatial:96.1% temporal:3.9%
x264 [info]: coded y,uvDC,uvAC intra: 73.5% 86.2% 63.5% inter: 34.3% 44.4% 18.7%
x264 [info]: i16 v,h,dc,p: 29% 26% 13% 33%
x264 [info]: i8 v,h,dc,ddl,ddr,vr,hd,vl,hu: 10% 21% 22% 5% 7% 6% 10% 7% 13%
x264 [info]: i4 v,h,dc,ddl,ddr,vr,hd,vl,hu: 7% 22% 6% 7% 11% 9% 15% 7% 16%
x264 [info]: i8c dc,h,v,p: 50% 28% 12% 10%
x264 [info]: Weighted P-Frames: Y:5.6% UV:2.9%
x264 [info]: ref P L0: 62.1% 13.1% 16.2% 8.2% 0.4% 0.0%
x264 [info]: ref B L0: 89.8% 8.0% 2.1%
x264 [info]: ref B L1: 98.2% 1.8%
x264 [info]: SSIM Mean Y:0.9864550 (18.682db)
x264 [info]: kb/s:14408.94
x264 [total]: encoded 86800 frames, 11.19 fps, 14408.95 kb/s

========================================================================================

Complete name : G:Blue.Planet.II2s1.mkv
Format : Matroska
Format version : Version 4 / Version 2
File size : 6.32 GiB
Duration : 57 min 52 s
Overall bit rate : 15.6 Mb/s
Encoded date : UTC 2018-01-10 15:24:05
Writing application : mkvmerge v19.0.0 ('Brave Captain') 64-bit
Writing library : libebml v1.3.5 + libmatroska v1.4.8

Video
ID : 1
Format : AVC
Format/Info : Advanced Video Codec
Format profile : High@L4.1
Format settings : CABAC / 4 Ref Frames
Format settings, CABAC : Yes
Format settings, ReFrames : 4 frames
Codec ID : V_MPEG4/ISO/AVC
Duration : 57 min 52 s
Bit rate : 14.4 Mb/s
Width : 1 920 pixels
Height : 1 080 pixels
Display aspect ratio : 16:9
Frame rate mode : Constant
Frame rate : 25.000 FPS
Color space : YUV
Chroma subsampling : 4:2:0
Bit depth : 8 bits
Scan type : Progressive
Bits/(Pixel*Frame) : 0.278
Stream size : 5.82 GiB (92%)
Writing library : x264 core 155 r2893 b00bcaf
Encoding settings : cabac=1 / ref=4 / deblock=1:-2:-2 / analyse=0x3:0x113 / me=umh / subme=10 / psy=1 / psy_rd=1.00:0.20 / mixed_ref=1 / me_range=24 / chroma_me=1 / trellis=2 / 8x8dct=1 / cqm=0 / deadzone=21,11 / fast_pskip=0 / chroma_qp_offset=-3 / threads=24 / lookahead_threads=2 / sliced_threads=0 / nr=0 / decimate=0 / interlaced=0 / bluray_compat=0 / constrained_intra=0 / bframes=5 / b_pyramid=2 / b_adapt=2 / b_bias=0 / direct=3 / weightb=1 / open_gop=0 / weightp=2 / keyint=250 / keyint_min=25 / scenecut=40 / intra_refresh=0 / rc_lookahead=60 / rc=2pass / mbtree=1 / bitrate=14409 / ratetol=1.0 / qcomp=0.60 / qpmin=0 / qpmax=69 / qpstep=4 / cplxblur=20.0 / qblur=0.5 / vbv_maxrate=50000 / vbv_bufsize=62500 / nal_hrd=none / filler=0 / ip_ratio=1.40 / aq=1:1.00
Language : English
Default : Yes
Forced : No

Audio #1
ID : 2
Format : AC-3
Format/Info : Audio Coding 3
Codec ID : A_AC3
Duration : 57 min 52 s
Bit rate mode : Constant
Bit rate : 384 kb/s
Channel(s) : 2 channels
Channel positions : Front: L R
Sampling rate : 48.0 kHz
Frame rate : 31.250 FPS (1536 SPF)
Bit depth : 16 bits
Compression mode : Lossy
Stream size : 159 MiB (2%)
Service kind : Complete Main
Default : Yes
Forced : No

Audio #2
ID : 3
Format : AC-3
Format/Info : Audio Coding 3
Codec ID : A_AC3
Duration : 57 min 52 s
Bit rate mode : Constant
Bit rate : 640 kb/s
Channel(s) : 6 channels
Channel positions : Front: L C R, Side: L R, LFE
Sampling rate : 48.0 kHz
Frame rate : 31.250 FPS (1536 SPF)
Bit depth : 16 bits
Compression mode : Lossy
Stream size : 265 MiB (4%)
Service kind : Complete Main
Default : No
Forced : No

Audio #3
ID : 4
Format : AC-3
Format/Info : Audio Coding 3
Codec ID : A_AC3
Duration : 57 min 52 s
Bit rate mode : Constant
Bit rate : 192 kb/s
Channel(s) : 2 channels
Channel positions : Front: L R
Sampling rate : 48.0 kHz
Frame rate : 31.250 FPS (1536 SPF)
Bit depth : 16 bits
Compression mode : Lossy
Stream size : 79.5 MiB (1%)
Service kind : Complete Main
Default : No
Forced : No





Скачать BBC.Голубая.планета.2.Blue.Planet.II.[S01].(Дэвид.Аттенборо).[2017.документальный.BDRip].[1080p].[AVO]+[MVO]+[VO].torrent без регистрации
Золото ЗОЛОТАЯ РАЗДАЧА! СКАЧАННОЕ НЕ ЗАСЧИТЫВАЕТСЯ! Золото
Дата: Зарегистрирован   [ Тип: внутренний ] Как тут cкачать?
MAGNET ссылка
MAGNET ссылка


Скачать .torrent

201 KB

Статус: проверено DHT
Скачан: торрент - 33 раз, раздача полностью - 20 раз
Размер: 40,02 GB
Оценка:  - (Голосов: 0)
Поблагодарили: 0
Поделиться ссылкой на эту раздачу с друзьями:
В контактеFacebookОдноклассникиTwitterLivejournalМой МирLiveinternet
 

 
Показать сообщения:    


Вы не можете начинать темы
Вы не можете отвечать на сообщения
Вы не можете редактировать свои сообщения
Вы не можете удалять свои сообщения
Вы не можете голосовать в опросах
Вы не можете прикреплять файлы к сообщениям
Вы можете скачивать файлы