Loading...
Error

Скачать Безумие / Asylum (Дэвид МакКензи) [2005, триллер, драма, мелодрама, WEB-DLRip] [720p] [MVO]x2+[Оригинал Eng]+[Sub Rus, Eng]x2 торрент без регистрации

Статистика раздачи
Размер:  5,78 GB   |    Скачан:  20 раз
Сидов:  1  [  0 KB/s  ]  
 
 
 
Автор Сообщение

Marsianka

[] 

Название: Безумие
Оригинальное название: Asylum
Год выпуска: 2005
Выпущено: Великобритания, Ирландия, Mace Neufeld Productions, Paramount Classics, Samson Films, Seven Arts Pictures, Zephyr Films
Жанр: триллер, драма, мелодрама
Режиссер: Дэвид МакКензи
В ролях: Наташа Ричардсон, Мартон Чокаш, Джуди Парфитт, Хью Бонневилль, Гас Льюис, Иэн МакКеллен, Джосс Экленд, Ванда Вентхам, Сара Тьюрстон, Алвайн Тейлор, Мария Аиткен, Хэйзел Дуглас, Шон Харрис, Ридиан Джонс, Сьюзи Госслинг Валерио, Патрик МакГрат, Анна Кивни, Роберт Уиллокс, Энди Де Ла Тур, Ник Чадвин, Джонатан Бридж, Вероника Фэйрхарст, Питер Йэтс

О фильме:
Действие фильма происходит в Англии 50-х годов. Жена главного врача сумасшедшего дома влюбляется в одного из пациентов. Их чувства, как весенняя гроза, не разбирают дорог, превращаясь в ураган любви и страстей. И никто не знает, что там, за поворотом больничного коридора - любовь или бездна...



Продолжительность: 01:39:47
Перевод: Профессиональный многоголосый
Субтитры: Русские, английские
Навигация по главам: Есть

Релиз от:

Файл
Качество: WEB-DLRip 720p
Видео: MPEG-4 AVC, 7264 Кбит/сек, 1280x534, 23,976 кадра/сек
Аудио #1: AC3, 2 ch, 192 Кбит/сек | Русский, профессиональный (многоголосый закадровый) R5
Аудио #2: AC3, 2 ch, 192 Кбит/сек | Русский, профессиональный (многоголосый закадровый)
Аудио #3: EAC3, 6 ch, 640 Кбит/сек | Английский, оригинал
x264 [info]: frame I:875 Avg QP:15.64 size:142403
x264 [info]: frame P:34142 Avg QP:17.54 size: 72223
x264 [info]: frame B:108532 Avg QP:20.06 size: 26200
-----------------------------------------------------
Общее
Уникальный идентификатор : 173762913361805191505048340281952354018 (0x82B985120E10B218B1640361F0C0BEE2)
Полное имя : Безумие.2005.WEB-DLRip.720p.KORSAR.mkv
Формат : Matroska
Размер файла : 5,78 Гбайт
Продолжительность : 1 ч. 39 м.
Общий поток : 8286 Кбит/сек
Дата кодирования : UTC 2017-11-08 16:33:38
Программа кодирования : mkvmerge v5.8.0 ('No Sleep / Pillow') built on Sep 2 2012 15:37:04
Библиотека кодирования : libebml v1.2.3 + libmatroska v1.3.0

Видео
Идентификатор : 1
Формат : AVC
Формат/Информация : Advanced Video Codec
Профиль формата : High@L4.1
Параметр CABAC формата : Да
Параметр ReFrames формата : 12 кадров
Идентификатор кодека : V_MPEG4/ISO/AVC
Продолжительность : 1 ч. 39 м.
Битрейт : 7264 Кбит/сек
Ширина : 1280 пикс.
Высота : 534 пикс.
Соотношение сторон : 2,40:1
Частота кадров : 23,976 кадр/сек
Цветовое пространство : YUV
Подвыборка цветности : 4:2:0
Битовая глубина : 8 бит
Тип развёртки : Прогрессивная
Бит/(Пиксели*Кадры) : 0.443
Размер потока : 4,95 Гбайт (86%)
Заголовок : RIP | MZMA
Библиотека кодирования : x264 core 152 r2851kMod ba24899
Настройки программы : cabac=1 / ref=12 / deblock=1:-3:-2 / analyse=0x3:0x113 / me=umh / subme=11 / psy=1 / fade_compensate=0.00 / psy_rd=0.90:0.05 / mixed_ref=1 / me_range=48 / chroma_me=1 / trellis=2 / 8x8dct=1 / cqm=0 / deadzone=21,11 / fast_pskip=0 / chroma_qp_offset=-3 / threads=6 / lookahead_threads=1 / sliced_threads=0 / nr=0 / decimate=0 / interlaced=0 / bluray_compat=0 / constrained_intra=0 / bframes=16 / b_pyramid=2 / b_adapt=2 / b_bias=0 / direct=3 / weightb=1 / open_gop=0 / weightp=2 / keyint=240 / keyint_min=23 / scenecut=40 / intra_refresh=0 / rc_lookahead=40 / rc=2pass / mbtree=0 / bitrate=7264 / ratetol=1.0 / qcomp=0.60 / qpmin=0 / qpmax=69 / qpstep=4 / cplxblur=20.0 / qblur=0.5 / vbv_maxrate=50000 / vbv_bufsize=62500 / nal_hrd=none / filler=0 / ip_ratio=1.25 / pb_ratio=1.30 / aq=3:0.70
Язык : English
Основные цвета : BT.709-5, BT.1361, IEC 61966-2-4, SMPTE RP177
Характеристики трансфера : BT.709-5, BT.1361
Коэффициенты матрицы : BT.709-5, BT.1361, IEC 61966-2-4 709, SMPTE RP177

Аудио #1
Идентификатор : 2
Формат : AC-3
Формат/Информация : Audio Coding 3
Расширение режима : CM (complete main)
Идентификатор кодека : A_AC3
Продолжительность : 1 ч. 39 м.
Вид битрейта : Постоянный
Битрейт : 192 Кбит/сек
Каналы : 2 канала
Расположение каналов : Front: L R
Частота : 48,0 КГц
Битовая глубина : 16 бит
Метод сжатия : С потерями
Размер потока : 137 Мбайт (2%)
Заголовок : MVO | R5
Язык : Russian

Аудио #2
Идентификатор : 3
Формат : AC-3
Формат/Информация : Audio Coding 3
Расширение режима : CM (complete main)
Идентификатор кодека : A_AC3
Продолжительность : 1 ч. 39 м.
Вид битрейта : Постоянный
Битрейт : 192 Кбит/сек
Каналы : 2 канала
Расположение каналов : Front: L R
Частота : 48,0 КГц
Битовая глубина : 16 бит
Метод сжатия : С потерями
Размер потока : 137 Мбайт (2%)
Заголовок : MVO
Язык : Russian

Аудио #3
Идентификатор : 4
Формат : E-AC-3
Формат/Информация : Audio Coding 3
Идентификатор кодека : A_EAC3
Продолжительность : 1 ч. 39 м.
Вид битрейта : Постоянный
Битрейт : 640 Кбит/сек
Каналы : 6 каналов
Расположение каналов : Front: L C R, Side: L R, LFE
Частота : 48,0 КГц
Метод сжатия : С потерями
Размер потока : 457 Мбайт (8%)
Заголовок : Original
Язык : English

Текст #1
Идентификатор : 5
Формат : UTF-8
Идентификатор кодека : S_TEXT/UTF8
Идентификатор кодека/Информация : UTF-8 Plain Text
Язык : Russian

Текст #2
Идентификатор : 6
Формат : UTF-8
Идентификатор кодека : S_TEXT/UTF8
Идентификатор кодека/Информация : UTF-8 Plain Text
Язык : English

Текст #3
Идентификатор : 7
Формат : UTF-8
Идентификатор кодека : S_TEXT/UTF8
Идентификатор кодека/Информация : UTF-8 Plain Text
Заголовок : SDH
Язык : English

Меню
00:00:00.000 : en:Chapter 01
00:06:20.882 : en:Chapter 02
00:11:44.038 : en:Chapter 03
00:14:30.872 : en:Chapter 04
00:17:25.880 : en:Chapter 05
00:21:48.142 : en:Chapter 06
00:23:21.235 : en:Chapter 07
00:26:23.083 : en:Chapter 08
00:29:22.629 : en:Chapter 09
00:33:47.394 : en:Chapter 10
00:38:08.121 : en:Chapter 11
00:41:34.360 : en:Chapter 12
00:45:08.708 : en:Chapter 13
00:49:31.971 : en:Chapter 14
00:54:01.907 : en:Chapter 15
01:00:00.265 : en:Chapter 16
01:06:01.459 : en:Chapter 17
01:12:59.710 : en:Chapter 18
01:18:22.366 : en:Chapter 19
01:24:52.256 : en:Chapter 20
01:27:51.301 : en:Chapter 21
01:33:18.428 : en:Chapter 22



Скачать Безумие.Asylum.(Дэвид.МакКензи).[2005.триллер.драма.мелодрама.WEB-DLRip].[720p].[MVO]x2+[Оригинал.Eng]+[Sub.Rus.Eng]x2.torrent без регистрации
Золото ЗОЛОТАЯ РАЗДАЧА! СКАЧАННОЕ НЕ ЗАСЧИТЫВАЕТСЯ! Золото
Дата: Зарегистрирован   [ Тип: внутренний ] Как тут cкачать?
MAGNET ссылка
MAGNET ссылка


Скачать .torrent

30 KB

Статус: проверено DHT
Скачан: торрент - 20 раз, раздача полностью - 9 раз
Размер: 5,78 GB
Оценка:  - (Голосов: 0)
Поблагодарили: 0
Поделиться ссылкой на эту раздачу с друзьями:
В контактеFacebookОдноклассникиTwitterLivejournalМой МирLiveinternet
 

 
Показать сообщения:    


Вы не можете начинать темы
Вы не можете отвечать на сообщения
Вы не можете редактировать свои сообщения
Вы не можете удалять свои сообщения
Вы не можете голосовать в опросах
Вы не можете прикреплять файлы к сообщениям
Вы можете скачивать файлы