Loading...
Error

Скачать Убийца / Точка невозврата / Point of No Return (Джон Бэдэм) [1993, боевик, триллер, криминал, BDRip-AVC] [Dub]+[Sub Rus, Eng]x2 торрент без регистрации

Статистика раздачи
Размер:  746 MB   |    Скачан:  28 раз

Полного источника не было: 25 минут

 
 
 
Автор Сообщение

Marsianka

[] 

Информация о фильме
Название: Убийца / Точка невозврата
Оригинальное название: Point of No Return
Год выхода: 1993
Жанр: боевик, триллер, криминал
Режиссер: Джон Бэдэм
В ролях: Бриджет Фонда, Гэбриэл Бирн, Дермот Малруни, Харви Кейтель, Мигель Феррер, Энн Бэнкрофт, Оливия д’Або, Ричард Романус, Лоррейн Туссен

О фильме :
Главная героиня фильма антисоциальная личность и просто настоящий изгой. Её никогда не принимало общество, и самое страшное её обвинили в убийстве и приговорили к смертной казни. Однако, некая секретная служба решила сделать из неё настоящего убийцу-профессионала. Только убивая по приказу, главная героиня сможет избежать смертной казни, сохранить себе жизнь. Её новая жизнь настолько ужасна, что она сама не знает что для неё лучше. Возможно, умереть было бы легче, чем убивать и пытаться выжить в этом жестком мире…



Страна: США
Студия: Art Linson Productions, Warner Bros. Pictures
Продолжительность: 01:48:20
Перевод: Профессиональный (полное дублирование)

Файл
Формат: MKV
Качество: BDRip-AVC (BDRemux 1080p)
Видео: MPEG-4 AVC, 784x328, ~ 884 Кбит/с
Аудио: AAC-LC, 2 ch, ~ 76 Кбит/с
Субтитры: Русские, английские
Общее
Уникальный идентификатор : 252624822601586878522491164287025862997 (0xBE0DC563D21095A8B5C80F7EA330D955)
Полное имя : D:MOVIESPoint of No Return.1993.ExKinoRay.mkv
Формат : Matroska
Версия формата : Version 4 / Version 2
Размер файла : 746 Мбайт
Продолжительность : 1 ч. 48 м.
Общий поток : 962 Кбит/сек
Дата кодирования : UTC 2018-01-13 14:53:36
Программа кодирования : mkvmerge v15.0.0 ('Duel with the Devil') 64-bit
Библиотека кодирования : libebml v1.3.5 + libmatroska v1.4.5

Видео
Идентификатор : 1
Формат : AVC
Формат/Информация : Advanced Video Codec
Профиль формата : High@L4.1
Параметр CABAC формата : Да
Параметр RefFrames формата : 10 кадров
Идентификатор кодека : V_MPEG4/ISO/AVC
Продолжительность : 1 ч. 48 м.
Битрейт : 884 Кбит/сек
Ширина : 784 пикселя
Высота : 328 пикселей
Соотношение сторон : 2,40:1
Режим частоты кадров : Постоянный
Частота кадров : 23,976 (24000/1001) кадра/сек
Цветовое пространство : YUV
Субдискретизация насыщенности : 4:2:0
Битовая глубина : 8 бит
Тип развёртки : Прогрессивная
Бит/(Пиксели*Кадры) : 0.143
Размер потока : 685 Мбайт (92%)
Библиотека кодирования : x264 core 152 r2851kMod ba24899
Настройки программы : cabac=1 / ref=10 / deblock=1:-3:-3 / analyse=0x3:0x133 / me=umh / subme=11 / psy=1 / fade_compensate=0.00 / psy_rd=1.00:0.15 / mixed_ref=1 / me_range=32 / chroma_me=1 / trellis=2 / 8x8dct=1 / cqm=0 / deadzone=21,11 / fast_pskip=0 / chroma_qp_offset=-3 / threads=6 / lookahead_threads=1 / sliced_threads=0 / nr=0 / decimate=0 / interlaced=0 / bluray_compat=0 / constrained_intra=0 / bframes=10 / b_pyramid=2 / b_adapt=2 / b_bias=0 / direct=3 / weightb=1 / open_gop=0 / weightp=2 / keyint=240 / keyint_min=23 / scenecut=40 / intra_refresh=0 / rc_lookahead=40 / rc=2pass / mbtree=1 / bitrate=884 / ratetol=1.0 / qcomp=0.60 / qpmin=0 / qpmax=69 / qpstep=4 / cplxblur=20.0 / qblur=0.5 / vbv_maxrate=50000 / vbv_bufsize=62500 / nal_hrd=none / filler=0 / ip_ratio=1.40 / aq=3:1.00
Default : Да
Forced : Нет

Аудио
Идентификатор : 2
Формат : AAC
Формат/Информация : Advanced Audio Codec
Профиль формата : LC
Идентификатор кодека : A_AAC
Продолжительность : 1 ч. 48 м.
Битрейт : 76,0 Кбит/сек
Каналы : 2 канала
Расположение каналов : Front: L R
Частота : 48,0 КГц
Частота кадров : 46,875 кадров/сек (1024 SPF)
Метод сжатия : С потерями
Задержка видео : 9 мс.
Размер потока : 58,9 Мбайт (8%)
Язык : Russian
Default : Да
Forced : Нет

Текст #1
Идентификатор : 3
Формат : UTF-8
Идентификатор кодека : S_TEXT/UTF8
Идентификатор кодека/Информация : UTF-8 Plain Text
Продолжительность : 1 ч. 42 м.
Битрейт : 53 бит/сек
ElementCount : 940
Размер потока : 40,0 Кбайт (0%)
Язык : Russian
Default : Нет
Forced : Нет

Текст #2
Идентификатор : 4
Формат : UTF-8
Идентификатор кодека : S_TEXT/UTF8
Идентификатор кодека/Информация : UTF-8 Plain Text
Продолжительность : 1 ч. 47 м.
Битрейт : 43 бит/сек
ElementCount : 1155
Размер потока : 34,7 Кбайт (0%)
Язык : English
Default : Нет
Forced : Нет

Меню
00:00:00.000 : :Chapter 1
00:05:29.203 : :Chapter 2
00:08:33.846 : :Chapter 3
00:12:25.077 : :Chapter 4
00:16:06.924 : :Chapter 5
00:17:54.656 : :Chapter 6
00:21:55.689 : :Chapter 7
00:26:57.949 : :Chapter 8
00:29:32.270 : :Chapter 9
00:32:17.852 : :Chapter 10
00:39:53.265 : :Chapter 11
00:42:29.880 : :Chapter 12
00:47:20.003 : :Chapter 13
00:50:42.789 : :Chapter 14
00:53:55.357 : :Chapter 15
00:55:33.330 : :Chapter 16
00:59:54.173 : :Chapter 17
01:01:48.371 : :Chapter 18
01:05:42.897 : :Chapter 19
01:09:17.778 : :Chapter 20
01:16:18.907 : :Chapter 21
01:19:22.048 : :Chapter 22
01:21:55.869 : :Chapter 23
01:24:41.076 : :Chapter 24
01:27:47.303 : :Chapter 25
01:30:10.196 : :Chapter 26
01:35:18.587 : :Chapter 27
01:39:25.376 : :Chapter 28
01:42:53.876 : :Chapter 29
01:44:51.368 : :Chapter 30
01:48:20.118 : :Chapter 31
Релиз от:



Скачать Убийца.Точка.невозврата.Point.of.No.Return.(Джон.Бэдэм).[1993.боевик.триллер.криминал.BDRip-AVC].[Dub]+[Sub.Rus.Eng]x2.torrent без регистрации
Золото ЗОЛОТАЯ РАЗДАЧА! СКАЧАННОЕ НЕ ЗАСЧИТЫВАЕТСЯ! Золото
Дата: Зарегистрирован   [ Тип: внутренний ] Как тут cкачать?
MAGNET ссылка
MAGNET ссылка


Скачать .torrent

16 KB

Статус: проверено DHT
Скачан: торрент - 28 раз, раздача полностью - 15 раз
Размер: 746 MB
Оценка:  5 (Голосов: 1)
Поблагодарили: 1
Поделиться ссылкой на эту раздачу с друзьями:
В контактеFacebookОдноклассникиTwitterLivejournalМой МирLiveinternet
 

 
Показать сообщения:    


Вы не можете начинать темы
Вы не можете отвечать на сообщения
Вы не можете редактировать свои сообщения
Вы не можете удалять свои сообщения
Вы не можете голосовать в опросах
Вы не можете прикреплять файлы к сообщениям
Вы можете скачивать файлы