Loading...
Error

Скачать Пираты Карибского моря: Мертвецы не рассказывают сказки / Pirates of the Caribbean: Dead Men Tell No Tales (Хоаким Роннинг, Эспен Сандберг) [2017, фэнтези, боевик, комедия, приключения, BDRemux] [1080p] 2x[Dub]+[AVO (Живов)]+[Eng]+[Sub Rus, Eng] торрент без регистрации

Статистика раздачи
Размер:  36,51 GB   |    Скачан:  49 раз

Полного источника не было: 23 минуты

 
 
 
Автор Сообщение

МихаНЕзатор

[] 

Информация о фильме
Название: Пираты Карибского моря: Мертвецы не рассказывают сказки
Оригинальное название: Pirates of the Caribbean: Dead Men Tell No Tales
Год выхода: 2017
Жанр: Фэнтези, боевик, комедия, приключения
Режиссер: Хоаким Роннинг, Эспен Сандберг

В ролях: Джонни Депп, Кира Найтли, Кая Скоделарио, Дэвид Уэнэм, Орландо Блум, Джеффри Раш, Брентон Туэйтс, Хавьер Бардем, Голшифте Фарахани, Стивен Грэм

О фильме: Исчерпавший свою удачу капитан Джек Воробей обнаруживает, что за ним охотится его старый неприятель, ужасный капитан Салазар и его призрачные пираты. Они только что сбежали из Дьявольского треугольника и намерены уничтожить всех пиратов, включая Джека. Поможет спастись лишь могущественный артефакт — трезубец Посейдона, который дарует своему обладателю полный контроль над морями.



Страна: США
Студия: Walt Disney Pictures, Jerry Bruckheimer Films, Infinitum Nihil
Продолжительность: 02:09:07
Перевод: Дублированный, авторский

Файл
Кодек: MPEG-4 AVC
Качество: BDRemux 1080p
Видео: 28000 Кбит/с, 1920x1080, 23.976 кадр/с

Аудио 1: Русский (DTS-HD MA, 8 ch, 5695 kbps, 48 kHz, 24 bit) - Дубляж (Sergesha)
Аудио 2: Русский (AC3, 6 ch, 640 Кбит/с) - Дубляж
Аудио 3: Русский (AC3, 6 ch, 640 Кбит/с) - Авторский (Живов)
Аудио 4: Английский (DTS-HD MA Audio, 8 ch, 48 kHz, 5598 kbps) - Оригинал
Субтитры: Русские, английские

АНОНСЫ ПОПУЛЯРНЫХ РАЗДАЧ
Это пятая часть серии фильмов «Пираты Карибского моря». Режиссерами фильма выступили Хоаким Роннинг и Эспен Сандберг, ранее не принимавших участия в работе над данной франшизой. Стоит отметить тот факт, что Роннинг и Сандберг уже работали вместе, режиссируя сериал «Марко Поло», который, в свою очередь, показал весьма неплохие результаты.
Выход фильма, изначально планировавшийся в 2015 году, из-за проблем со сценарием и бюджетных вопросов был отложен сначала до 2016, а затем до 2017 года.
Съёмки начались в Австралии в феврале 2015 года после того, как правительство Австралии предложило студии Disney около 20 миллионов долларов налоговых льгот.
Фильм снят в форматах Disney Digital 3D, RealD 3D, и IMAX 3D.
Это первое появления Орландо Блума в «пиратах» за 10 лет после «Пираты Карибского моря: На краю света».
На роль возлюбленной Брентона Туэйтеса рассматривали Люси Бойнтон, Габриэллу Уайлд, Дженну Тиам, Каю Скоделарио и Александру Доулинг. В результате было решено утвердить Скоделарио.
Во время съёмок в Австралии Джонни Депп повредил руку, после чего вернулся в США.
Кира Найтли заявила, что не собирается возвращаться во франшизу, она также добавила, что съёмки во франшизе были прекрасным периодом, однако это отняло у неё 5 лет жизни, и она просто не видит себя снова в той же роли.
В одном из интервью Орландо Блум назвал будущий фильм «мягкой перезагрузкой» предыдущих частей франшизы.
На роль режиссёра фильма рассматривались кандидатуры Фредрика Бонда, Тима Бёртона, Альфонсо Куарона, Шона Леви, Сэма Рэйми, Руперта Сандерса и Криса Вайца.
Единственными актёрами, снявшимися во всех частях франшизы, стали Джонни Депп, Джеффри Раш и Кевин МакНэлли.
На роль Генри рассматривались Энсела Эльгорта, Брентона Туэйтса, Тэрона Эджертона, Джорджа МакКея и Сэма Кили. В итоге было решено утвердить Туэйтеса.
Франшиза о пиратах Карибского моря занимает 12-ю строчку в списке самых кассовых в истории.
Дэвид Уэнэм, в роли Скарфилда, и Орландо Блум, исполнитель роли Уилла Тёрнера, ранее снимались двух фильмах трилогии «Властелин колец». Уэнэм сыграл Фарамира, а Блум — Леголаса в фильмах «Властелин колец: Две крепости» и «Властелин колец: Возвращение Короля».
Дэвид Уэнэм ранее снимался с Джонни Деппом в фильме «Джонни Д.».
Джонни Депп и Хавьер Бардем вместе сыграли в фильме «Пока не наступит ночь».

Общее
Уникальный идентификатор : 190676616485850076350585058493768753703 (0x8F72FB049170338C8DF03C4CBA216227)
Полное имя : D:\1 РЕМУКС!!!!!\Пираты Карибского моря. Мертвецы не рассказывают сказки.BDRemux.mkv
Формат : Matroska
Версия формата : Version 4 / Version 2
Размер файла : 36,5 Гбайт
Продолжительность : 2 ч. 9 м.
Режим общего битрейта : Переменный
Общий поток : 40,5 Мбит/сек
Название фильма : Пираты Карибского моря: Мертвецы не рассказывают сказки.BDRemux.thx:SPOMOPS
Дата кодирования : UTC 2018-01-13 11:14:54
Программа кодирования : mkvmerge v8.3.0 ('Over the Horizon') 64bit
Библиотека кодирования : libebml v1.3.1 + libmatroska v1.4.2

Видео
Идентификатор : 1
Формат : AVC
Формат/Информация : Advanced Video Codec
Профиль формата : High@L4.1
Настройки формата : CABAC / 4 Ref Frames
Параметр CABAC формата : Да
Параметр RefFrames формата : 4 кадра
Идентификатор кодека : V_MPEG4/ISO/AVC
Продолжительность : 2 ч. 9 м.
Вид битрейта : Переменный
Битрейт : 27,9 Мбит/сек
Максимальный битрейт : 34,5 Мбит/сек
Ширина : 1920 пикселей
Высота : 1080 пикселей
Соотношение сторон : 16:9
Режим частоты кадров : Постоянный
Частота кадров : 23,976 (24000/1001) кадра/сек
Цветовое пространство : YUV
Субдискретизация насыщенности : 4:2:0
Битовая глубина : 8 бит
Тип развёртки : Прогрессивная
Бит/(Пиксели*Кадры) : 0.561
Размер потока : 25,2 Гбайт (69%)
Язык : English
Default : Да
Forced : Нет

Аудио #1
Идентификатор : 2
Формат : DTS
Формат/Информация : Digital Theater Systems
Профиль формата : MA / Core
Идентификатор кодека : A_DTS
Продолжительность : 2 ч. 9 м.
Вид битрейта : Переменный / Постоянный
Битрейт : 5695 Кбит/сек / 1509 Кбит/сек
Каналы : 8 каналов / 6 каналов
Расположение каналов : Front: L C R, Side: L R, Back: L R, LFE / Front: L C R, Side: L R, LFE
Частота : 48,0 КГц
Частота кадров : 93,750 кадра/сек (512 SPF)
Битовая глубина : 24 бит
Метод сжатия : Без потерь / Lossy
Размер потока : 5,14 Гбайт (14%)
Заголовок : Русский DTS-HD MA 5695 - Дубляж
Язык : Russian
Default : Да
Forced : Нет

Аудио #2
Идентификатор : 3
Формат : AC-3
Формат/Информация : Audio Coding 3
Идентификатор кодека : A_AC3
Продолжительность : 2 ч. 9 м.
Вид битрейта : Постоянный
Битрейт : 640 Кбит/сек
Каналы : 6 каналов
Расположение каналов : Front: L C R, Side: L R, LFE
Частота : 48,0 КГц
Частота кадров : 31,250 кадров/сек (1536 SPF)
Битовая глубина : 16 бит
Метод сжатия : С потерями
Размер потока : 591 Мбайт (2%)
Заголовок : Русский ас3 640 - Дубляж
Язык : Russian
ServiceKind/String : Complete Main
Default : Нет
Forced : Нет

Аудио #3
Идентификатор : 4
Формат : AC-3
Формат/Информация : Audio Coding 3
Идентификатор кодека : A_AC3
Продолжительность : 2 ч. 9 м.
Вид битрейта : Постоянный
Битрейт : 640 Кбит/сек
Каналы : 6 каналов
Расположение каналов : Front: L C R, Side: L R, LFE
Частота : 48,0 КГц
Частота кадров : 31,250 кадров/сек (1536 SPF)
Битовая глубина : 16 бит
Метод сжатия : С потерями
Размер потока : 591 Мбайт (2%)
Заголовок : Русский ас3 640 - АП (Живов)
Язык : Russian
ServiceKind/String : Complete Main
Default : Нет
Forced : Нет

Аудио #4
Идентификатор : 5
Формат : DTS
Формат/Информация : Digital Theater Systems
Профиль формата : MA / Core
Идентификатор кодека : A_DTS
Продолжительность : 2 ч. 9 м.
Вид битрейта : Переменный / Постоянный
Битрейт : 5598 Кбит/сек / 1509 Кбит/сек
Каналы : 8 каналов / 6 каналов
Расположение каналов : Front: L C R, Side: L R, Back: L R, LFE / Front: L C R, Side: L R, LFE
Частота : 48,0 КГц
Частота кадров : 93,750 кадра/сек (512 SPF)
Битовая глубина : 24 бит
Метод сжатия : Без потерь / Lossy
Размер потока : 5,05 Гбайт (14%)
Заголовок : Английский DTS-HD MA 5599 - Оригинал
Язык : English
Default : Нет
Forced : Нет

Текст #1
Идентификатор : 6
Формат : UTF-8
Идентификатор кодека : S_TEXT/UTF8
Идентификатор кодека/Информация : UTF-8 Plain Text
Продолжительность : 1 ч. 17 м.
Битрейт : 0 бит/сек
ElementCount : 11
Размер потока : 538 байт (0%)
Заголовок : Русские - Forced
Язык : Russian
Default : Да
Forced : Нет

Текст #2
Идентификатор : 7
Формат : UTF-8
Идентификатор кодека : S_TEXT/UTF8
Идентификатор кодека/Информация : UTF-8 Plain Text
Продолжительность : 1 ч. 59 м.
Битрейт : 71 бит/сек
ElementCount : 1319
Размер потока : 62,7 Кбайт (0%)
Заголовок : Русские - Full
Язык : Russian
Default : Нет
Forced : Нет

Текст #3
Идентификатор : 8
Формат : UTF-8
Идентификатор кодека : S_TEXT/UTF8
Идентификатор кодека/Информация : UTF-8 Plain Text
Продолжительность : 1 ч. 55 м.
Битрейт : 45 бит/сек
ElementCount : 1435
Размер потока : 38,2 Кбайт (0%)
Заголовок : Английские - Full
Язык : English
Default : Нет
Forced : Нет

Текст #4
Идентификатор : 9
Формат : UTF-8
Идентификатор кодека : S_TEXT/UTF8
Идентификатор кодека/Информация : UTF-8 Plain Text
Продолжительность : 2 ч. 7 м.
Битрейт : 48 бит/сек
ElementCount : 1772
Размер потока : 45,8 Кбайт (0%)
Заголовок : Английские - SDH
Язык : English
Default : Нет
Forced : Нет

Меню
00:00:00.000 : en:00:00:00.000
00:05:49.516 : en:00:05:49.516
00:08:34.222 : en:00:08:34.222
00:13:40.820 : en:00:13:40.820
00:16:29.155 : en:00:16:29.155
00:22:33.852 : en:00:22:33.852
00:25:19.268 : en:00:25:19.268
00:28:06.101 : en:00:28:06.101
00:31:41.775 : en:00:31:41.775
00:33:44.814 : en:00:33:44.814
00:37:02.053 : en:00:37:02.053
00:42:27.712 : en:00:42:27.712
00:49:09.071 : en:00:49:09.071
00:54:00.279 : en:00:54:00.279
00:57:19.394 : en:00:57:19.394
01:00:38.718 : en:01:00:38.718
01:08:29.939 : en:01:08:29.939
01:11:57.021 : en:01:11:57.021
01:16:50.940 : en:01:16:50.940
01:19:27.471 : en:01:19:27.471
01:25:04.808 : en:01:25:04.808
01:27:42.174 : en:01:27:42.174
01:31:43.790 : en:01:31:43.790
01:38:22.814 : en:01:38:22.814
01:42:36.776 : en:01:42:36.776
01:47:23.562 : en:01:47:23.562
01:52:58.689 : en:01:52:58.689
01:59:09.934 : en:01:59:09.934



Скачать Пираты.Карибского.моря.Мертвецы.не.рассказывают.сказки.Pirates.of.the.Caribbean.Dead.Men.Tell.No.Tales.(Хоаким.Роннинг.Эспен.Сандберг).[2017.фэнтези.боевик.комедия.приключения.BDRemux].[1080p].2x[Dub]+[AVO.(Живов)]+[Eng]+[Sub.Rus.Eng].torrent без регистрации
Золото ЗОЛОТАЯ РАЗДАЧА! СКАЧАННОЕ НЕ ЗАСЧИТЫВАЕТСЯ! Золото
Дата: Зарегистрирован   [ Тип: внутренний ] Как тут cкачать?
MAGNET ссылка
MAGNET ссылка


Скачать .torrent

184 KB

Статус: проверено DHT
Скачан: торрент - 49 раз, раздача полностью - 47 раз
Размер: 36,51 GB
Оценка:  - (Голосов: 0)
Поблагодарили: 2
Поделиться ссылкой на эту раздачу с друзьями:
В контактеFacebookОдноклассникиTwitterLivejournalМой МирLiveinternet
 

 
Показать сообщения:    


Вы не можете начинать темы
Вы не можете отвечать на сообщения
Вы не можете редактировать свои сообщения
Вы не можете удалять свои сообщения
Вы не можете голосовать в опросах
Вы не можете прикреплять файлы к сообщениям
Вы можете скачивать файлы