Loading...
Error

Скачать Макс Пэйн / Max Payne (Джон Мур) [2008, боевик, триллер, драма, криминал, детектив, BDRip] [720p] [Dub]+[MVO]+[AVO]x3+[Оригинал Eng]+[Sub Rus, Eng]x2 торрент без регистрации

Статистика раздачи
Размер:  5,76 GB   |    Скачан:  25 раз
Сидов:  1  [  0 KB/s  ]  
 
 
 
Автор Сообщение

Marsianka

[] 

Информация о фильме
Название: Макс Пэйн
Оригинальное название: Max Payne
Год выхода: 2008
Жанр: боевик, триллер, драма, криминал, детектив
Режиссер: Джон Мур
В ролях: Марк Уолберг, Мила Кунис, Бо Бриджес, Лудакрис, Крис О’Доннелл, Донал Лог, Амори Ноласко, Кейт Бёртон, Ольга Куриленко, Ротафорд Грэй

О фильме:
Сотруднику Управления по борьбе с наркотиками не на что жаловаться. У него есть все: отличная работа, любящая жена и маленький ребенок. Словом, не жизнь, а американская мечта, которая однажды оборачивается самым страшным кошмаром: какой-то психопат убивает его семью.

Отныне у Макса только одна цель — отомстить. Но месть осложняется тем, что его несправедливо обвиняют в убийстве, и все, кому не лень, начинают на него охоту — Полицейское управление Нью-Йорка, уголовный мир и городские власти. Теперь ему уже действительно нечего терять и нечего опасаться. При такой отчаянной решимости только Макс Пэйн способен пролить свет на все тайны, связанные с уничтожением его семьи, и главное, получить удовлетворение от мести, которой он так жаждет...



Страна: США, Канада
Студия: Abandon Entertainment, Collision Entertainment, Depth Entertainment
Продолжительность: 01:42:58
Перевод: Дублированный, профессиональный (многоголосый закадровый), авторский (одноголосый закадровый)

Файл
Кодек: H.264
Качество: BDRip 720p
Видео: AVC, 1280x534 (2.40:1), 23.976 fps, 5 313 Kbps (0.324 bit/pixel)

Аудио #1: AC-3, 48.0 KHz, 6 ch, 448 Kbps, CBR (Russian) - дублированный
Аудио #2: AC-3, 48.0 KHz, 6 ch, 448 Kbps, CBR (Russian) - многоголосый (Киномания)
Аудио #3: AC-3, 48.0 KHz, 6 ch, 448 Kbps, CBR (Russian) - авторский А.Гаврилов
Аудио #4: AC-3, 48.0 KHz, 6 ch, 448 Kbps, CBR (Russian) - авторский Е.Гаевский
Аудио #5: AC-3, 48.0 KHz, 6 ch, 448 Kbps, CBR (Russian) - авторский Ю.Немахов
Аудио #6: AC-3, 48.0 KHz, 6 ch, 448 Kbps, CBR (English) - оригинальная звуковая дорожка
Субтитры: Russian, English
Релиз от:
Полное имя : D:ФИЛЬМЫМакс Пэйн.2008 (М.Уолберг) UNRAITED.k.e.n & MegaPeer.mkv
Формат : Matroska
Версия формата : Version 2
Размер файла : 5,76 Гбайт
Продолжительность : 1 ч. 42 м.
Общий поток : 8006 Кбит/сек
Название фильма : Макс Пэйн / Max Payne [2008г] Unrated
Дата кодирования : UTC 2018-01-14 07:31:22
Программа кодирования : mkvmerge v5.3.0 ('I could have danced') built on Feb 9 2012 10:38:07
Библиотека кодирования : libebml v1.2.3 + libmatroska v1.3.0
Attachments : poster.jpg

Видео
Идентификатор : 1
Формат : AVC
Формат/Информация : Advanced Video Codec
Профиль формата : High@L4.1
Параметр CABAC формата : Да
Параметр ReFrames формата : 12 кадров
Идентификатор кодека : V_MPEG4/ISO/AVC
Продолжительность : 1 ч. 42 м.
Битрейт : 5313 Кбит/сек
Ширина : 1280 пикселей
Высота : 534 пикселя
Соотношение сторон : 2,40:1
Режим частоты кадров : Постоянный
Частота кадров : 23,976 (24000/1001) кадра/сек
Цветовое пространство : YUV
Субдискретизация насыщенности : 4:2:0
Битовая глубина : 8 бит
Тип развёртки : Прогрессивная
Бит/(Пиксели*Кадры) : 0.324
Размер потока : 3,71 Гбайт (64%)
Библиотека кодирования : x264 core 146 r2538 121396c
Настройки программы : cabac=1 / ref=12 / deblock=1:-3:-3 / analyse=0x3:0x133 / me=umh / subme=11 / psy=1 / psy_rd=1.02:0.10 / mixed_ref=1 / me_range=32 / chroma_me=1 / trellis=2 / 8x8dct=1 / cqm=0 / deadzone=21,11 / fast_pskip=0 / chroma_qp_offset=-3 / threads=12 / lookahead_threads=3 / sliced_threads=0 / nr=0 / decimate=0 / interlaced=0 / bluray_compat=0 / constrained_intra=0 / bframes=11 / b_pyramid=2 / b_adapt=2 / b_bias=0 / direct=3 / weightb=1 / open_gop=0 / weightp=2 / keyint=240 / keyint_min=23 / scenecut=40 / intra_refresh=0 / rc=2pass / mbtree=0 / bitrate=5313 / ratetol=1.0 / qcomp=0.60 / qpmin=0 / qpmax=69 / qpstep=4 / cplxblur=20.0 / qblur=0.5 / ip_ratio=1.40 / pb_ratio=1.30 / aq=3:0.90
Язык : English
Default : Да
Forced : Нет

Аудио #1
Идентификатор : 2
Формат : AC-3
Формат/Информация : Audio Coding 3
Расширение режима : CM (complete main)
Параметр Endianness формата : Big
Идентификатор кодека : A_AC3
Продолжительность : 1 ч. 42 м.
Вид битрейта : Постоянный
Битрейт : 448 Кбит/сек
Каналы : 6 каналов
Расположение каналов : Front: L C R, Side: L R, LFE
Частота : 48,0 КГц
Частота кадров : 31,250 кадров/сек (1536 spf)
Битовая глубина : 16 бит
Метод сжатия : С потерями
Размер потока : 330 Мбайт (6%)
Заголовок : Дубляж
Язык : Russian
Default : Да
Forced : Нет

Аудио #2
Идентификатор : 3
Формат : AC-3
Формат/Информация : Audio Coding 3
Расширение режима : CM (complete main)
Параметр Endianness формата : Big
Идентификатор кодека : A_AC3
Продолжительность : 1 ч. 42 м.
Вид битрейта : Постоянный
Битрейт : 448 Кбит/сек
Каналы : 6 каналов
Расположение каналов : Front: L C R, Side: L R, LFE
Частота : 48,0 КГц
Частота кадров : 31,250 кадров/сек (1536 spf)
Битовая глубина : 16 бит
Метод сжатия : С потерями
Размер потока : 330 Мбайт (6%)
Заголовок : Многоголосый Киномания
Язык : Russian
Default : Нет
Forced : Нет

Аудио #3
Идентификатор : 4
Формат : AC-3
Формат/Информация : Audio Coding 3
Расширение режима : CM (complete main)
Параметр Endianness формата : Big
Идентификатор кодека : A_AC3
Продолжительность : 1 ч. 42 м.
Вид битрейта : Постоянный
Битрейт : 448 Кбит/сек
Каналы : 6 каналов
Расположение каналов : Front: L C R, Side: L R, LFE
Частота : 48,0 КГц
Частота кадров : 31,250 кадров/сек (1536 spf)
Битовая глубина : 16 бит
Метод сжатия : С потерями
Размер потока : 330 Мбайт (6%)
Заголовок : Авторский А.Гаврилов
Язык : Russian
Default : Нет
Forced : Нет

Аудио #4
Идентификатор : 5
Формат : AC-3
Формат/Информация : Audio Coding 3
Расширение режима : CM (complete main)
Параметр Endianness формата : Big
Идентификатор кодека : A_AC3
Продолжительность : 1 ч. 42 м.
Вид битрейта : Постоянный
Битрейт : 448 Кбит/сек
Каналы : 6 каналов
Расположение каналов : Front: L C R, Side: L R, LFE
Частота : 48,0 КГц
Частота кадров : 31,250 кадров/сек (1536 spf)
Битовая глубина : 16 бит
Метод сжатия : С потерями
Размер потока : 330 Мбайт (6%)
Заголовок : Авторский Е.Гаевский
Язык : Russian
Default : Нет
Forced : Нет

Аудио #5
Идентификатор : 6
Формат : AC-3
Формат/Информация : Audio Coding 3
Расширение режима : CM (complete main)
Параметр Endianness формата : Big
Идентификатор кодека : A_AC3
Продолжительность : 1 ч. 42 м.
Вид битрейта : Постоянный
Битрейт : 448 Кбит/сек
Каналы : 6 каналов
Расположение каналов : Front: L C R, Side: L R, LFE
Частота : 48,0 КГц
Частота кадров : 31,250 кадров/сек (1536 spf)
Битовая глубина : 16 бит
Метод сжатия : С потерями
Размер потока : 330 Мбайт (6%)
Заголовок : Авторский Ю.Немахов
Язык : Russian
Default : Нет
Forced : Нет

Аудио #6
Идентификатор : 7
Формат : AC-3
Формат/Информация : Audio Coding 3
Расширение режима : CM (complete main)
Параметр Endianness формата : Big
Идентификатор кодека : A_AC3
Продолжительность : 1 ч. 42 м.
Вид битрейта : Постоянный
Битрейт : 448 Кбит/сек
Каналы : 6 каналов
Расположение каналов : Front: L C R, Side: L R, LFE
Частота : 48,0 КГц
Частота кадров : 31,250 кадров/сек (1536 spf)
Битовая глубина : 16 бит
Метод сжатия : С потерями
Размер потока : 330 Мбайт (6%)
Заголовок : оригинал
Язык : English
Default : Нет
Forced : Нет

Текст #1
Идентификатор : 8
Формат : UTF-8
Идентификатор кодека : S_TEXT/UTF8
Идентификатор кодека/Информация : UTF-8 Plain Text
Заголовок : Русские FULL
Язык : Russian
Default : Нет
Forced : Нет

Текст #2
Идентификатор : 9
Формат : UTF-8
Идентификатор кодека : S_TEXT/UTF8
Идентификатор кодека/Информация : UTF-8 Plain Text
Заголовок : Русские FORSED
Язык : Russian
Default : Нет
Forced : Нет

Текст #3
Идентификатор : 10
Формат : UTF-8
Идентификатор кодека : S_TEXT/UTF8
Идентификатор кодека/Информация : UTF-8 Plain Text
Заголовок : Английские FULL
Язык : English
Default : Нет
Forced : Нет

Меню
00:00:00.000 : :Chapter 01
00:01:55.740 : :Chapter 02
00:04:15.672 : :Chapter 03
00:08:23.461 : :Chapter 04
00:13:49.203 : :Chapter 05
00:17:04.732 : :Chapter 06
00:21:18.359 : :Chapter 07
00:23:20.648 : :Chapter 08
00:26:25.417 : :Chapter 09
00:30:33.206 : :Chapter 10
00:32:48.424 : :Chapter 11
00:34:54.634 : :Chapter 12
00:37:36.087 : :Chapter 13
00:44:08.853 : :Chapter 14
00:50:37.659 : :Chapter 15
00:55:12.809 : :Chapter 16
01:01:41.948 : :Chapter 17
01:04:22.149 : :Chapter 18
01:07:55.654 : :Chapter 19
01:15:17.054 : :Chapter 20
01:18:05.847 : :Chapter 21
01:21:21.417 : :Chapter 22
01:23:03.812 : :Chapter 23
01:26:23.469 : :Chapter 24
01:29:02.128 : :Chapter 25
01:33:31.104 : :Chapter 26
01:35:18.337 : :Chapter 27
01:41:18.697 : :Chapter 28
01:42:58.255 : :Chapter 29
x264 [info]: frame I:1124 Avg QP:14.60 size:114055 PSNR Mean Y:47.69 U:50.74 V:51.74 Avg:48.55 Global:48.06
x264 [info]: frame P:33970 Avg QP:16.97 size: 48815 PSNR Mean Y:45.77 U:50.06 V:51.13 Avg:46.80 Global:46.15
x264 [info]: frame B:113042 Avg QP:19.08 size: 20508 PSNR Mean Y:44.42 U:49.20 V:50.52 Avg:45.53 Global:44.90



Скачать Макс.Пэйн.Max.Payne.(Джон.Мур).[2008.боевик.триллер.драма.криминал.детектив.BDRip].[720p].[Dub]+[MVO]+[AVO]x3+[Оригинал.Eng]+[Sub.Rus.Eng]x2.torrent без регистрации
Золото ЗОЛОТАЯ РАЗДАЧА! СКАЧАННОЕ НЕ ЗАСЧИТЫВАЕТСЯ! Золото
Дата: Зарегистрирован   [ Тип: внутренний ] Как тут cкачать?
MAGNET ссылка
MAGNET ссылка


Скачать .torrent

15 KB

Статус: проверено DHT
Скачан: торрент - 25 раз, раздача полностью - 3 раз
Размер: 5,76 GB
Оценка:  - (Голосов: 0)
Поблагодарили: 0
Поделиться ссылкой на эту раздачу с друзьями:
В контактеFacebookОдноклассникиTwitterLivejournalМой МирLiveinternet
 

 
Показать сообщения:    


Вы не можете начинать темы
Вы не можете отвечать на сообщения
Вы не можете редактировать свои сообщения
Вы не можете удалять свои сообщения
Вы не можете голосовать в опросах
Вы не можете прикреплять файлы к сообщениям
Вы можете скачивать файлы