Loading...
Error

Скачать Свадьба в Малиновке (Андрей Тутышкин) [1967, мюзикл, комедия, военный, BDRip-AVC] [60FPS] торрент без регистрации

Статистика раздачи
Размер:  11,97 GB   |    Скачан:  13 раз
Сидов:  1  [  0 KB/s  ]  
 
 
 
Автор Сообщение

Marsianka

[] 

Информация о фильме
Название: Свадьба в Малиновке
Год выхода: 1967
Жанр: мюзикл, комедия, военный
Режиссер: Андрей Тутышкин
В ролях: Владимир Самойлов, Людмила Алфимова, Валентина Лысенко, Евгений Лебедев, Зоя Фёдорова, Гелий Сысоев, Михаил Пуговкин, Николай Сличенко, Андрей Абрикосов, Григорий Абрикосов, Михаил Водяной, Тамара Носова, Эмма Трейвас, Алексей Смирнов, Маргарита Криницына, Александр Орлов, Юрий Шепелев, Любовь Тищенко, Александр Захаров, Раиса Пироженко, Алексей Захаров, Николай Пишванов, Лев Степанов, Валентина Николаенко


О фильме:
Идет гражданская воина. В украинской деревне то и дело меняется власть. Чтобы разделаться с бандой головорезов, красный командир уговаривает девушку Яринку разыграть ее свадьбу с атаманом...



Страна: CCCР
Продолжительность: 01:32:19
Перевод: Оригинал

Файл
Кодек: x264
Качество: BDRip-AVC
Видео: 1026x436 (2.35:1), 60.000 fps, MPEG-4 AVC, 17.7 Mbps
Звук: AC3, 448 Kbps, 48.0 KHz, 6 ch

Семпл

Код:

General
Unique ID                                : 66751679147846010437717505840360814720 (0x3237E7E099FA6D64176CBB3318ED7880)
Complete name                            : Свадьба в Малиновке.(1967).BDRIP-AVC by WSM [60FPS].mkv
Format                                   : Matroska
Format version                           : Version 4 / Version 2
File size                                : 12.0 GiB
Duration                                 : 1h 32mn
Overall bit rate                         : 18.6 Mbps
Movie name                               : Свадьба в Малиновке
Encoded date                             : UTC 2018-01-16 05:00:48
Writing application                      : mkvmerge v19.0.0 ('Brave Captain') 64-bit
Writing library                          : libebml v1.3.5 + libmatroska v1.4.8
DURATION                                 : 01:32:19.584000000
NUMBER_OF_FRAMES                         : 332043
NUMBER_OF_BYTES                          : 12539136651

Video
ID                                       : 1
Format                                   : AVC
Format/Info                              : Advanced Video Codec
Format profile                           : High@L4.1
Format settings, CABAC                   : Yes
Format settings, ReFrames                : 5 frames
Frame mode                               : Frame tripling
Codec ID                                 : V_MPEG4/ISO/AVC
Duration                                 : 1h 32mn
Bit rate                                 : 17.7 Mbps
Width                                    : 1 026 pixels
Height                                   : 436 pixels
Display aspect ratio                     : 2.35:1
Frame rate mode                          : Constant
Frame rate                               : 60.000 fps
Original frame rate                      : 19.980 fps
Color space                              : YUV
Chroma subsampling                       : 4:2:0
Bit depth                                : 8 bits
Scan type                                : MBAFF
Bits/(Pixel*Frame)                       : 0.661
Stream size                              : 11.4 GiB (96%)
Writing library                          : x264 core 148 r2638 7599210
Encoding settings                        : cabac=1 / ref=6 / deblock=1:-3:-3 / analyse=0x3:0x133 / me=umh / subme=9 / psy=1 / psy_rd=1.00:0.26 / mixed_ref=1 / me_range=16 / chroma_me=1 / trellis=2 / 8x8dct=1 / cqm=0 / deadzone=21,11 / fast_pskip=0 / chroma_qp_offset=-1 / threads=6 / lookahead_threads=1 / sliced_threads=0 / nr=2 / decimate=1 / interlaced=tff / bluray_compat=1 / constrained_intra=0 / bframes=3 / b_pyramid=1 / b_adapt=1 / b_bias=0 / direct=1 / weightb=1 / open_gop=0 / weightp=0 / keyint=599 / keyint_min=1 / scenecut=40 / intra_refresh=0 / rc=cqp / mbtree=0 / qp=14 / ip_ratio=1.40 / pb_ratio=1.30 / aq=0
Default                                  : Yes
Forced                                   : No

Audio
ID                                       : 2
Format                                   : AC-3
Format/Info                              : Audio Coding 3
Mode extension                           : CM (complete main)
Format settings, Endianness              : Big
Codec ID                                 : A_AC3
Duration                                 : 1h 32mn
Bit rate mode                            : Constant
Bit rate                                 : 448 Kbps
Channel(s)                               : 6 channels
Channel positions                        : Front: L C R, Side: L R, LFE
Sampling rate                            : 48.0 KHz
Bit depth                                : 16 bits
Compression mode                         : Lossy
Stream size                              : 296 MiB (2%)
Language                                 : Russian
Default                                  : Yes
Forced                                   : No
DURATION                                 : 01:32:19.584000000
NUMBER_OF_FRAMES                         : 173112
NUMBER_OF_BYTES                          : 310216704
_STATISTICS_WRITING_APP                  : mkvmerge v19.0.0 ('Brave Captain') 64-bit
_STATISTICS_WRITING_DATE_UTC             : 2018-01-16 05:00:48
_STATISTICS_TAGS                         : BPS DURATION NUMBER_OF_FRAMES NUMBER_OF_BYTES
★ Занимает по посещаемости 5-е место среди отечественных фильмов за всю историю советского кинопроката.

★ Фильм действительно снимался в селе Малиновке Чугуевского района Харьковской области.

★ Фильм был приурочен к 50-летию Октябрьской революции, и, раз действие происходит на Украине, Госкино предложило производство Киностудии им. Довженко, но там отказались, сославшись на «несерьёзность» фильма.

★ Михаил Пуговкин едва не стал жертвой закулисных интриг в съёмочной группе, и вообще мог не попасть в картину. Режиссёр видел в роли Яшки-артиллериста только его, но ассистентка в течение нескольких месяцев говорила Тутышкину, что «не может найти Пуговкина», так как у неё был свой кандидат. Режиссёр позвонил Пуговкину сам, и вопрос был решён.

★ Пуговкин разучивал танец «В ту степь» (то есть тустеп, англ. two-step, от two — два и step — шаг) полтора месяца, потому что, по мнению замечательного балетмейстера Галины Шаховской, ему не хватало куража. Впоследствии танец стал гордостью Пуговкина. Сам бальный танец появился в США в самом начале 20-х годов. Мода на него захватила Европу всё в тех же 20-х годах. А поскольку действие фильма происходит в 1919 году, то персонаж Пуговкина Яшка-артиллерист ещё ничего не мог знать об этом танце.

★ В массовках были задействованы практически все жители Малиновки.

★ На роль Софии была утверждена одна ленинградская актриса, но она заболела, и режиссёр пригласил Людмилу Алфимову на пробы. Когда на Ленфильме Алфимова вышла из гримерной в образе, режиссёр вскрикнул: «Это настоящая солдатка София!».

★ В июле 2013 года в селе Малиновка (Харьковская область) был установлен памятник герою фильма адъютанту Попандопуло.
Релиз от: WSM [60FPS]



Скачать Свадьба.в.Малиновке.(Андрей.Тутышкин).[1967.мюзикл.комедия.военный.BDRip-AVC].[60FPS].torrent без регистрации
Золото ЗОЛОТАЯ РАЗДАЧА! СКАЧАННОЕ НЕ ЗАСЧИТЫВАЕТСЯ! Золото
Дата: Зарегистрирован   [ Тип: внутренний ] Как тут cкачать?
MAGNET ссылка
MAGNET ссылка


Скачать .torrent

31 KB

Статус: проверено DHT
Скачан: торрент - 13 раз, раздача полностью - 1 раз
Размер: 11,97 GB
Оценка:  5 (Голосов: 1)
Поблагодарили: 1
Поделиться ссылкой на эту раздачу с друзьями:
В контактеFacebookОдноклассникиTwitterLivejournalМой МирLiveinternet
 

 
Показать сообщения:    


Вы не можете начинать темы
Вы не можете отвечать на сообщения
Вы не можете редактировать свои сообщения
Вы не можете удалять свои сообщения
Вы не можете голосовать в опросах
Вы не можете прикреплять файлы к сообщениям
Вы можете скачивать файлы