Loading...
Error

Скачать Охотница с орлом / The Eagle Huntress (Отто Белл) [2016, документальный, приключения, спорт, WEBRip] [720p] [MVO (Синема УС)] торрент без регистрации

Статистика раздачи
Размер:  2,99 GB   |    Скачан:  16 раз
Сидов:  1  [  0 KB/s  ]  
 
 
 
Автор Сообщение

Marsianka

[] 

Информация о фильме
Название: Охотница с орлом
Оригинальное: The Eagle Huntress
Год выхода: 2016
Жанр: документальный, приключения, спорт
Режиссер: Отто Белл

О фильме:
Путешествие 13-летней Айшолпан, которая нарушила тысячелетнюю традицию монголов и стала первой в истории девушкой, виртуозно овладевшей «мужским» искусством охоты с хищными птицами. Фантастические пейзажи горного Алтая, виртуозные съёмки уроков выносливости и мужества, захватывающая интрига превращают фильм в событие, способное потрясти воображение.



Страна: Великобритания, Монголия, США
Студия: Kissaki Films, Stacey Reiss Productions
Продолжительность: 01:27:39
Перевод: Любительский (многоголосый, закадровый) [Синема УС]

Файл
Кодек: MPEG-4 AVC
Качество: WEBRip 720p
Видео: 1280х696, 4693 Кбит/с, 24 кадр/с
Звук: AC3, 2 канала, 192 Кбит/с
Общее
Полное имя : C:ОХОТНИЦА С ОРЛОМ.mp4
Формат : MPEG-4
Профиль формата : Base Media
Идентификатор кодека : isom (isom/iso2/mp41)
Размер файла : 2,99 Гбайт
Продолжительность : 1 ч. 27 м.
Режим общего битрейта : Переменный
Общий поток : 4889 Кбит/сек
Дата кодирования : UTC 2017-05-23 17:57:11
Дата пометки : UTC 2017-05-23 17:57:11
Программа кодирования : Lavf56.15.102

Видео
Идентификатор : 1
Формат : MPEG-4 Visual
Профиль формата : Simple@L1
Параметр BVOP формата : Нет
Параметр QPel формата : Нет
Параметр GMC формата : Без точки перехода
Параметр матрицы формата : Default (H.263)
Идентификатор кодека : mp4v-20
Продолжительность : 1 ч. 27 м.
Вид битрейта : Переменный
Битрейт : 4693 Кбит/сек
Максимальный битрейт : 4806 Кбит/сек
Ширина : 1280 пикселей
Высота : 696 пикселей
Соотношение сторон : 1,85:1
Режим частоты кадров : Постоянный
Частота кадров : 23,976 (23976/1000) кадра/сек
Цветовое пространство : YUV
Субдискретизация насыщенности : 4:2:0
Битовая глубина : 8 бит
Тип развёртки : Прогрессивная
Метод сжатия : С потерями
Бит/(Пиксели*Кадры) : 0.220
Размер потока : 2,87 Гбайт (96%)
Библиотека кодирования : Lavc56.13.100
Дата кодирования : UTC 2017-05-23 17:57:11
Дата пометки : UTC 2017-05-23 17:57:11

Аудио
Идентификатор : 2
Формат : AC-3
Формат/Информация : Audio Coding 3
Идентификатор кодека : ac-3
Продолжительность : 1 ч. 27 м.
Вид битрейта : Постоянный
Битрейт : 192 Кбит/сек
Каналы : 2 канала
Расположение каналов : Front: L R
Частота : 48,0 КГц
Частота кадров : 31,250 кадров/сек (1536 SPF)
Битовая глубина : 16 бит
Метод сжатия : С потерями
Размер потока : 120 Мбайт (4%)
Default : Да
Дата кодирования : UTC 2017-05-23 17:57:11
Дата пометки : UTC 2017-05-23 17:57:11
Реклама: присутствует



Скачать Охотница.с.орлом.The.Eagle.Huntress.(Отто.Белл).[2016.документальный.приключения.спорт.WEBRip].[720p].[MVO.(Синема.УС)].torrent без регистрации
Золото ЗОЛОТАЯ РАЗДАЧА! СКАЧАННОЕ НЕ ЗАСЧИТЫВАЕТСЯ! Золото
Дата: Зарегистрирован   [ Тип: внутренний ] Как тут cкачать?
MAGNET ссылка
MAGNET ссылка


Скачать .torrent

16 KB

Статус: проверено DHT
Скачан: торрент - 16 раз, раздача полностью - 0 раз
Размер: 2,99 GB
Оценка:  - (Голосов: 0)
Поблагодарили: 0
Поделиться ссылкой на эту раздачу с друзьями:
В контактеFacebookОдноклассникиTwitterLivejournalМой МирLiveinternet
 

 
Показать сообщения:    


Вы не можете начинать темы
Вы не можете отвечать на сообщения
Вы не можете редактировать свои сообщения
Вы не можете удалять свои сообщения
Вы не можете голосовать в опросах
Вы не можете прикреплять файлы к сообщениям
Вы можете скачивать файлы