Loading...
Error

Скачать Королева бензоколонки (Николай Литус, Алексей Мишурин) [1962, комедия, HDTVRip] торрент без регистрации

Статистика раздачи
Размер:  695 MB   |    Скачан:  18 раз
Сидов:  1  [  0 KB/s  ]  
 
 
 
Автор Сообщение

Marsianka

[] 

Информация о фильме
Оригинальное название: Королева бензоколонки
Год выхода: 1962
Жанр: комедия
Режиссеры: Николай Литус, Алексей Мишурин
В ролях: Надежда Румянцева, Андрей Сова, Алексей Кожевников, Нонна Копержинская, Юрий Белов, Владимир Белокуров,
Сергей Блинников, Виктор Мягкий, Николай Яковченко, Евгения Опалова, Виктор Халатов, Павел Винник, Александр Хвыля,
Сергей Шеметило, Николай Панасьев, Валентин Грудинин, Григорий Тесля, Валентин Черняк, Александр Толстых, Валентин Зиновьев, Семён Лихогоденко, Валерий Панарин, Борис Болдыревский, Михаил Крамар

О фильме: Как и все девушки шестидесятых годов, Людмила мечтает танцевать в балете на льду.
Но она не проходит по конкурсу - и меняет свою мечту: после ряда приключений
Людмила устраивается на бензоколонке заправщицей...



Страна: СССР
Студия: Киностудия им. А. Довженко
Продолжительность: 01:12:54
Перевод: Не Требуется
Субтитры: Нет

Файл
Кодек: XviD
Качество: HDTVRip - без всплывающих окошек и посторонних надписей, мешающих просмотру!
Видео: 624x464 (1.34:1), 25 fps, XviD build 73 ~1193 kbps avg, 0.17 bit/pixel
Звук: 48 kHz, MPEG Layer 3, 2 ch, ~128.00 kbps avg
General
Complete name : Koroleva.Benzokolonki.1962.HDTVRip.ot.Portablius.avi
Format : AVI
Format/Info : Audio Video Interleave
File size : 695 MiB
Duration : 1 h 12 min
Overall bit rate : 1 332 kb/s
Writing application : VirtualDubMod 1.5.10.3 | www.virtualdub-fr.org || (build 2550/release)
Writing library : VirtualDubMod build 2550/release

Video
ID : 0
Format : MPEG-4 Visual
Format profile : Advanced Simple@L5
Format settings, BVOP : 1
Format settings, QPel : No
Format settings, GMC : No warppoints
Format settings, Matrix : Custom
Codec ID : XVID
Codec ID/Hint : XviD
Duration : 1 h 12 min
Bit rate : 1 194 kb/s
Width : 624 pixels
Height : 464 pixels
Display aspect ratio : 4:3
Frame rate : 25.000 FPS
Color space : YUV
Chroma subsampling : 4:2:0
Bit depth : 8 bits
Scan type : Progressive
Compression mode : Lossy
Bits/(Pixel*Frame) : 0.165
Stream size : 623 MiB (90%)
Writing library : XviD 73

Audio
ID : 1
Format : MPEG Audio
Format version : Version 1
Format profile : Layer 3
Codec ID : 55
Codec ID/Hint : MP3
Duration : 1 h 12 min
Bit rate mode : Constant
Bit rate : 128 kb/s
Channel(s) : 2 channels
Sampling rate : 48.0 kHz
Compression mode : Lossy
Stream size : 66.8 MiB (10%)
Alignment : Aligned on interleaves
Interleave, duration : 40 ms (1.00 video frame)
Interleave, preload duratio : 504 ms
Writing library : LAME3.99r
Encoding settings : -m s -V 4 -q 2 -lowpass 17 -b 128



Скачать Королева.бензоколонки.(Николай.Литус.Алексей.Мишурин).[1962.комедия.HDTVRip].torrent без регистрации
Золото ЗОЛОТАЯ РАЗДАЧА! СКАЧАННОЕ НЕ ЗАСЧИТЫВАЕТСЯ! Золото
Дата: Зарегистрирован   [ Тип: внутренний ] Как тут cкачать?
MAGNET ссылка
MAGNET ссылка


Скачать .torrent

14 KB

Статус: проверено DHT
Скачан: торрент - 18 раз, раздача полностью - 3 раз
Размер: 695 MB
Оценка:  - (Голосов: 0)
Поблагодарили: 0
Поделиться ссылкой на эту раздачу с друзьями:
В контактеFacebookОдноклассникиTwitterLivejournalМой МирLiveinternet
 

 
Показать сообщения:    


Вы не можете начинать темы
Вы не можете отвечать на сообщения
Вы не можете редактировать свои сообщения
Вы не можете удалять свои сообщения
Вы не можете голосовать в опросах
Вы не можете прикреплять файлы к сообщениям
Вы можете скачивать файлы