Loading...
Error

Скачать Американские герои / American Outlaws (Лес Мэйфилд) [2001, боевик, вестерн, WEB-DL] [720p] [Dub]+[MVO]+[AVO]+[Eng]+[Sub Rus, Eng]x2 торрент без регистрации

Статистика раздачи
Размер:  3,21 GB   |    Скачан:  20 раз

Полного источника не было: 23 минуты

 
 
 
Автор Сообщение

Marsianka

[] 

Информация о фильме
Название: Американские герои
Оригинальное название: American Outlaws
Год выхода: 2001
Жанр: боевик, вестерн
Режиссер: Лес Мэйфилд
В ролях: Колин Фаррелл, Скотт Каан, Эли Лартер, Гэбриел Махт, Грегори Смит, Харрис Юлин, Кэти Бейтс, Тимоти Далтон, Уилл МакКормак, Ронни Кокс

О фильме: История легендарных разбойников Америки, отважных молодых воинов, вернувшихся домой с гражданской войны и вынужденных объявить вендетту могущественным железнодорожным магнатам. Созданная парнями банда становится объектом крупнейшей охоты на людей, которую возглавил знаменитый детектив Пинкертон.

Тадеуш Рейнс, железнодорожный барон, оккупировал родной городишко Либерти с целью проложить через него рельсы, а выжить из него местных жителей ему помогал никто иной как Алан Пинкертон, тот самый сыщик.

Джесси и Фрэнк Джеймсы не могли такого допустить, особенно, учитывая тот факт, что они только что вернулись с гражданской войны, где они проиграли. Сколотив банду из бывших однополчан, сочувствующих местных жителей и команда, они принимаются устраивать саботаж на строительстве железной дороги, грабить банки, финансирующие строительство и разоряя обслуживающие пути службы.

Джесси мечтает вернуться в родной город, где его ждет любимая, а в банде возникают конфликты, которые так же опасны, как и Пинкертон, вооруженная рука закона.



Страна: США
Студия: Morgan Creek Productions
Продолжительность: 01:34:35
Перевод: Профессиональный (дублированный) Екатеринбург-Арт + Профессиональный (многоголосый, закадровый) + Авторский (одноголосый, закадровый) Ю.Живов

Файл
Качество: WEB-DL 720p
Формат: Matroska
Видео: 1280x718 at 23.976 fps, MPEG-4 AVC, ~3800 kbps avg
Аудио#1: Russian: 48 kHz, AC3 Dolby Digital, 2/0 (L,R) ch, ~192 kbps avg |Дубляж, Екатеринбург-Арт |
Аудио#2: Russian: 48 kHz, AC3 Dolby Digital, 3/2 (L,C,R,l,r) + LFE ch, ~384 kbps avg |Многоголосый закадровый|
Аудио#3: Russian: 48 kHz, AC3 Dolby Digital, 2/0 (L,R) ch, ~192 kbps avg |Авторский, Ю.Живов|
Аудио#4: English: 48 kHz, AC3 Dolby Digital, 2/0 (L,R) ch, ~192 kbps avg
Субтитры: Russian, English
***Релиз - whalekilla.
Общее
Уникальный идентификатор : 254678239518485158853347789929390817115 (0xBF993EA910FB40EF8004635279C03F5B)
Полное имя : American.Outlaws.2001.WEB-DL.(720p).mkv
Формат : Matroska
Версия формата : Version 4 / Version 2
Размер файла : 3,21 Гбайт
Продолжительность : 1 ч. 34 м.
Общий поток : 4863 Кбит/сек
Название фильма : American Outlaws (2001)
Дата кодирования : UTC 2017-05-31 20:11:12
Программа кодирования : mkvmerge v6.9.1 ('Blue Panther') 64bit built on Apr 18 2014 18:23:38
Библиотека кодирования : libebml v1.3.0 + libmatroska v1.4.1

Видео
Идентификатор : 1
Формат : AVC
Формат/Информация : Advanced Video Codec
Профиль формата : High@L3.1
Параметр CABAC формата : Нет
Параметр ReFrames формата : 2 кадра
Идентификатор кодека : V_MPEG4/ISO/AVC
Продолжительность : 1 ч. 34 м.
Битрейт : 3806 Кбит/сек
Ширина : 1280 пикселей
Высота : 718 пикселей
Соотношение сторон : 16:9
Режим частоты кадров : Постоянный
Частота кадров : 23,976 кадра/сек
Цветовое пространство : YUV
Субдискретизация насыщенности : 4:2:0
Битовая глубина : 8 бит
Тип развёртки : Прогрессивная
Бит/(Пиксели*Кадры) : 0.173
Размер потока : 2,51 Гбайт (78%)
Заголовок : American Outlaws (2001)
Язык : English
Default : Да
Forced : Нет
Color range : Limited
Основные цвета : BT.709
Характеристики трансфера : BT.709
Коэффициенты матрицы : BT.709

Аудио #1
Идентификатор : 2
Формат : AC-3
Формат/Информация : Audio Coding 3
Расширение режима : CM (complete main)
Параметр Endianness формата : Big
Идентификатор кодека : A_AC3
Продолжительность : 1 ч. 34 м.
Вид битрейта : Постоянный
Битрейт : 192 Кбит/сек
Каналы : 2 канала
Расположение каналов : Front: L R
Частота : 48,0 КГц
Метод сжатия : С потерями
Размер потока : 130 Мбайт (4%)
Заголовок : АС3, 2 ch, 192 Kbps, Dub
Язык : Russian
Default : Да
Forced : Нет

Аудио #2
Идентификатор : 3
Формат : AC-3
Формат/Информация : Audio Coding 3
Расширение режима : CM (complete main)
Параметр Endianness формата : Big
Идентификатор кодека : A_AC3
Продолжительность : 1 ч. 34 м.
Вид битрейта : Постоянный
Битрейт : 384 Кбит/сек
Каналы : 6 каналов
Расположение каналов : Front: L C R, Side: L R, LFE
Частота : 48,0 КГц
Метод сжатия : С потерями
Размер потока : 260 Мбайт (8%)
Заголовок : АС3, 6 ch, 384 Kbps, MVO
Язык : Russian
Default : Нет
Forced : Нет

Аудио #3
Идентификатор : 4
Формат : AC-3
Формат/Информация : Audio Coding 3
Расширение режима : CM (complete main)
Параметр Endianness формата : Big
Идентификатор кодека : A_AC3
Продолжительность : 1 ч. 34 м.
Вид битрейта : Постоянный
Битрейт : 192 Кбит/сек
Каналы : 2 канала
Расположение каналов : Front: L R
Частота : 48,0 КГц
Метод сжатия : С потерями
Размер потока : 130 Мбайт (4%)
Заголовок : AC3, 2 ch, 192 Kbps, AVO, Юрий Живов
Язык : Russian
Default : Нет
Forced : Нет

Аудио #4
Идентификатор : 5
Формат : AC-3
Формат/Информация : Audio Coding 3
Расширение режима : CM (complete main)
Параметр Endianness формата : Big
Идентификатор кодека : A_AC3
Продолжительность : 1 ч. 34 м.
Вид битрейта : Постоянный
Битрейт : 192 Кбит/сек
Каналы : 2 канала
Расположение каналов : Front: L R
Частота : 48,0 КГц
Метод сжатия : С потерями
Размер потока : 130 Мбайт (4%)
Заголовок : АС3, 2 ch, 192 Kbps, Original
Язык : English
Default : Нет
Forced : Нет

Текст #1
Идентификатор : 6
Формат : UTF-8
Идентификатор кодека : S_TEXT/UTF8
Идентификатор кодека/Информация : UTF-8 Plain Text
Язык : Russian
Default : Нет
Forced : Нет

Текст #2
Идентификатор : 7
Формат : UTF-8
Идентификатор кодека : S_TEXT/UTF8
Идентификатор кодека/Информация : UTF-8 Plain Text
Язык : English
Default : Нет
Forced : Нет



Скачать Американские.герои.American.Outlaws.(Лес.Мэйфилд).[2001.боевик.вестерн.WEB-DL].[720p].[Dub]+[MVO]+[AVO]+[Eng]+[Sub.Rus.Eng]x2.torrent без регистрации
Золото ЗОЛОТАЯ РАЗДАЧА! СКАЧАННОЕ НЕ ЗАСЧИТЫВАЕТСЯ! Золото
Дата: Зарегистрирован   [ Тип: внутренний ] Как тут cкачать?
MAGNET ссылка
MAGNET ссылка


Скачать .torrent

17 KB

Статус: проверено DHT
Скачан: торрент - 20 раз, раздача полностью - 7 раз
Размер: 3,21 GB
Оценка:  - (Голосов: 0)
Поблагодарили: 1
Поделиться ссылкой на эту раздачу с друзьями:
В контактеFacebookОдноклассникиTwitterLivejournalМой МирLiveinternet
 

 
Показать сообщения:    


Вы не можете начинать темы
Вы не можете отвечать на сообщения
Вы не можете редактировать свои сообщения
Вы не можете удалять свои сообщения
Вы не можете голосовать в опросах
Вы не можете прикреплять файлы к сообщениям
Вы можете скачивать файлы