Loading...
Error

Скачать Вий (Георгий Кропачев, Константин Ершов) [1967, ужасы, фэнтези, драма, BDRip] [720p] [60 FPS] [Оригинал] торрент без регистрации

Статистика раздачи
Размер:  4,5 GB   |    Скачан:  44 раза

Полного источника не было: 25 минут

 
 
 
Автор Сообщение

Marsianka

[] 

Год выпуска: 1967
Страна: СССР
Жанр: ужасы, фэнтези, драма
Продолжительность: 01:16:51
Перевод: Оригинал

Режиссер: Георгий Кропачев, Константин Ершов
Сценарий: Георгий Кропачев, Александр Птушко, Константин Ершов
Оператор: Виктор Пищальников, Федор Проворов
Композитор : Карэн Хачатурян
Художник: Николай Маркин, Александр Птушко, Роза Сатуновская
Монтаж: Регина Песецкая, Тамара Зубова

В ролях: Леонид Куравлёв, Наталья Варлей, Алексей Глазырин, Николай Кутузов, Вадим Захарченко, Петр Вескляров, Владимир Сальников, Дмитрий Капка, Степан Шкурат, Георгий Сочевко


Описание: Студент-философ Хома Брут должен провести несколько ночей у гроба умершей панночки в старой церквушке в далекой деревне. Сможет ли он побороть свой страх, или ему придется столкнуться с нечистой силой?..



СЭМПЛ
★ Фильм снят по одноименной повести Николая Гоголя.

★ Идея экранизации «Вия» принадлежит известному советскому режиссёру, на тот момент директору кинокомпании Мосфильм, Ивану Пырьеву. Лишь по причине острой нехватки времени он предложил снять картину двум учащимся Высших режиссерских курсов Союза кинематографистов СССР Георгию Кропачеву и Константину Ершову.

★ Съемки фильм производились в Богородчанском районе Ивано-Франковской области (ныне Украина). Однако отснятый на натуре материал разочаровал руководство Мосфильма, оказавшись «слишком реалистическим». Так к работе было решено привлечь известного режиссёра кино-сказочника Александра Птушко. В результате, много материала отснятого Ершовым и Кропачевым было вырезано, ряд идей так и остались невоплощёнными. Изменён был и облик главного чудовища фильма — Вия.

★ Александра Завьялова изначально утвержденная на роль Панночки, сразу после начала съемок тяжело заболела. В итоге будущий муж актрисы, режиссер Резо Эсадзе требовал, чтоб она отказалась от роли.

★ Первоначально на роль Хомы Брута планировался Михаил Кокшенов.

★ «Полет» Ведьмы на Хоме был снят в павильоне. Шест, замаскированный под метлу с горизонтальной планкой, на которой сидел Николай Кутузов, крепился на небольшой высоте. Исполнитель роли Хомы Леонид Куравлёв повисал также на этой планке и перебирал в воздухе ногами, имитируя бег.

★ В реквизите фильма было заготовлено три гроба Панночки. Один настоящий, для съемок лежащей в нем Натальи Варлей. Два других — для сцен полетов по церкви: небольшой и закрытый и открытый, со специальной стойкой, снабженной поясом монтажных рабочих удерживавшим актрису от падения, закрепленный в подвешенном состоянии на шести металлических тросах.

★ Во время съемок полета, Наталья Варлей однажды выпала из гроба. Только реакция Леонида Куравлёва, успевшего подхватить актрису, спасла ее от травм. Тем не менее этот случай породил множественные слухи о смерти Варлей.

★ По задумке Георгия Кропачева сам Вий должен был выглядеть более антропоморфно — гигантским немощным стариком, которого поддерживали всевозможные инфернальные существа.

★ В фильме задействованы 50 ворон (пойманых в районе студии) и 9 дрессированных черных кошек.

★ Петух, кукарекающий в фильме ранее был задействован Птушко при съемках фильма «Сказка о царе Салтане».

★ Костюм Вия был очень тяжелый и никто из актеров не мог в нем нормально двигаться, поэтому эту роль пришлось сыграть специально приглашенному штангисту.

★ Когда во время одной из финальных сцен героиня Натальи Варлей трясется от злости, актриса стоит на специальной вибрирующей платформе.
Формат:MKV
Видео кодек: AVC
Аудио кодек: AC3
Видео: 976x720 (4:3), 59.880 fps, AVC, 7 579 Kbps
Аудио: AC3, 640 Kbps, 48.0 KHz, 2 ch
General
Unique ID : 171200381901025720152428565114344310092 (0x80CBFE83D99ABA4EB135979371FE054C)
Complete name : Вий.1967.720p.WSM[60FPS].mkv
Format : Matroska
Format version : Version 2
File size : 4.50 GiB
Duration : 1h 16mn
Overall bit rate : 8 386 Kbps
Encoded date : UTC 2018-01-18 16:52:22
Writing application : mkvmerge v8.5.2 ('Crosses') 32bit
Writing library : libebml v1.3.3 + libmatroska v1.4.4
DURATION : 01:16:51.040000000
NUMBER_OF_FRAMES : 144095
NUMBER_OF_BYTES : 368883200
_STATISTICS_WRITING_APP : mkvmerge v8.5.2 ('Crosses') 32bit
_STATISTICS_WRITING_DATE_UTC : 2018-01-18 16:52:22
_STATISTICS_TAGS : BPS DURATION NUMBER_OF_FRAMES NUMBER_OF_BYTES

Video
ID : 1
Format : AVC
Format/Info : Advanced Video Codec
Format profile : High@L4.1
Format settings, CABAC : Yes
Format settings, ReFrames : 11 frames
Codec ID : V_MPEG4/ISO/AVC
Duration : 1h 16mn
Bit rate : 7 579 Kbps
Width : 976 pixels
Height : 720 pixels
Display aspect ratio : 4:3
Frame rate mode : Constant
Frame rate : 59.880 fps
Original frame rate : 59.940 fps
Color space : YUV
Chroma subsampling : 4:2:0
Bit depth : 8 bits
Scan type : Progressive
Bits/(Pixel*Frame) : 0.180
Stream size : 4.07 GiB (90%)
Writing library : x264 core 148 r2638 7599210
Encoding settings : cabac=1 / ref=11 / deblock=1:-3:-3 / analyse=0x3:0x133 / me=umh / subme=9 / psy=1 / psy_rd=1.00:0.00 / mixed_ref=1 / me_range=32 / chroma_me=1 / trellis=2 / 8x8dct=1 / cqm=0 / deadzone=21,11 / fast_pskip=1 / chroma_qp_offset=-2 / threads=6 / lookahead_threads=1 / sliced_threads=0 / nr=0 / decimate=1 / interlaced=0 / bluray_compat=0 / constrained_intra=0 / bframes=3 / b_pyramid=2 / b_adapt=2 / b_bias=0 / direct=3 / weightb=1 / open_gop=0 / weightp=2 / keyint=599 / keyint_min=59 / scenecut=40 / intra_refresh=0 / rc_lookahead=40 / rc=crf / mbtree=1 / crf=14.0 / qcomp=0.60 / qpmin=10 / qpmax=69 / qpstep=4 / ip_ratio=1.40 / aq=1:1.00
Default : Yes
Forced : No

Audio
ID : 2
Format : AC-3
Format/Info : Audio Coding 3
Mode extension : CM (complete main)
Format settings, Endianness : Big
Codec ID : A_AC3
Duration : 1h 16mn
Bit rate mode : Constant
Bit rate : 640 Kbps
Channel(s) : 2 channels
Channel positions : Front: L R
Sampling rate : 48.0 KHz
Bit depth : 16 bits
Compression mode : Lossy
Stream size : 352 MiB (8%)
Language : Russian
Default : Yes
Forced : No

Menu
00:00:00.000 : en:00:00:00.000
00:10:03.978 : en:00:10:03.978
00:21:28.996 : en:00:21:28.996
00:26:57.366 : en:00:26:57.366
00:37:36.254 : en:00:37:36.254
00:45:53.084 : en:00:45:53.084
00:55:23.403 : en:00:55:23.403
01:05:14.828 : en:01:05:14.828
Релиз от:




Скачать Вий.(Георгий.Кропачев.Константин.Ершов).[1967.ужасы.фэнтези.драма.BDRip].[720p].[60.FPS].[Оригинал].torrent без регистрации
Золото ЗОЛОТАЯ РАЗДАЧА! СКАЧАННОЕ НЕ ЗАСЧИТЫВАЕТСЯ! Золото
Дата: Зарегистрирован   [ Тип: внутренний ] Как тут cкачать?
MAGNET ссылка
MAGNET ссылка


Скачать .torrent

12 KB

Статус: проверено DHT
Скачан: торрент - 44 раз, раздача полностью - 12 раз
Размер: 4,5 GB
Оценка:  - (Голосов: 0)
Поблагодарили: 0
Поделиться ссылкой на эту раздачу с друзьями:
В контактеFacebookОдноклассникиTwitterLivejournalМой МирLiveinternet
 

 
Показать сообщения:    


Вы не можете начинать темы
Вы не можете отвечать на сообщения
Вы не можете редактировать свои сообщения
Вы не можете удалять свои сообщения
Вы не можете голосовать в опросах
Вы не можете прикреплять файлы к сообщениям
Вы можете скачивать файлы