Loading...
Error

Скачать Свой крест (Валерий Лонской) [1989, психологический детектив, DVDRip-AVC] торрент без регистрации

Статистика раздачи
Размер:  2,73 GB   |    Скачан:  20 раз
Сидов:  2  [  0 KB/s  ]  
 
 
 
Автор Сообщение

Marsianka

[] 

Свой крест


Год выпуска: 1989
Жанр: психологический детектив
Продолжительность: 02:31:04
Перевод: Не требуется

Режиссер: Валерий Лонской
В ролях: Елена Яковлева, Игорь Бочкин,Анна Баженова, Виктор Раков, Елена Аминова, Елена Скороходова,Любовь Руденко, Мария Пастухова

Описание: Молодой историк выбрал темой для диссертации историю царской охраны и начинает заниматься поиском еще оставшихся в живых тайных агентов или их родственников. Поиски приводят его в настоящее время, что вызывает недовольство очень влиятельных людей. Но у каждого свой крест. Герой, несмотря на сильное давление со всех сторон, мужественно идет напролом и в конечном итоге находит неожиданную смерть.
Но история на этом не кончается...



Доп. информация: По повести Юрия Трифонова "Другая жизнь".

Кодек: х264
Качество: DVDRip-AVC
Видео: MPEG-4 AVC, 690х574@736x574, 25 fps, 2200 Кбит/с
Аудио: AC3, 6 ch, 384 Кбит/с

x264 [info]: frame I:1060 Avg QP:16.66 size: 67115
x264 [info]: frame P:45307 Avg QP:19.30 size: 30096
x264 [info]: frame B:180244 Avg QP:21.01 size: 5870

Общее
Уникальный идентификатор : 188443284818577794265163328220011452212 (0x8DC4DB43EAB7D729949549F58B585734)
Полное имя : E:Мои рипыСвой крест 1989_DVDRip-AVC_KORSAR.mkv
Формат : Matroska
Версия формата : Version 2
Размер файла : 2,73 Гбайт
Продолжительность : 2 ч. 31 м.
Общий поток : 2586 Кбит/сек
Дата кодирования : UTC 2018-01-18 22:23:28
Программа кодирования : mkvmerge v5.8.0 ('No Sleep / Pillow') built on Sep 2 2012 15:37:04
Библиотека кодирования : libebml v1.2.3 + libmatroska v1.3.0

Видео
Идентификатор : 1
Формат : AVC
Формат/Информация : Advanced Video Codec
Профиль формата : High@L4.1
Настройки формата : CABAC / 15 Ref Frames
Параметр CABAC формата : Да
Параметр RefFrames формата : 15 кадров
Идентификатор кодека : V_MPEG4/ISO/AVC
Продолжительность : 2 ч. 31 м.
Битрейт : 2200 Кбит/сек
Ширина : 690 пикселей
Высота : 574 пикселя
Соотношение сторон : 1,282
Режим частоты кадров : Постоянный
Частота кадров : 25,000 кадров/сек
Цветовое пространство : YUV
Субдискретизация насыщенности : 4:2:0
Битовая глубина : 8 бит
Тип развёртки : Прогрессивная
Бит/(Пиксели*Кадры) : 0.222
Размер потока : 2,27 Гбайт (83%)
Библиотека кодирования : x264 core 152 r2851kMod ba24899
Настройки программы : cabac=1 / ref=15 / deblock=1:-2:-1 / analyse=0x3:0x133 / me=umh / subme=11 / psy=1 / fade_compensate=0.00 / psy_rd=1.05:0.10 / mixed_ref=1 / me_range=48 / chroma_me=1 / trellis=2 / 8x8dct=1 / cqm=0 / deadzone=21,11 / fast_pskip=0 / chroma_qp_offset=-3 / threads=12 / lookahead_threads=2 / sliced_threads=0 / nr=0 / decimate=0 / interlaced=0 / bluray_compat=0 / constrained_intra=0 / bframes=8 / b_pyramid=2 / b_adapt=2 / b_bias=0 / direct=3 / weightb=1 / open_gop=0 / weightp=2 / keyint=250 / keyint_min=25 / scenecut=40 / intra_refresh=0 / rc_lookahead=40 / rc=2pass / mbtree=0 / bitrate=2200 / ratetol=1.0 / qcomp=0.60 / qpmin=0 / qpmax=39 / qpstep=4 / cplxblur=20.0 / qblur=0.5 / vbv_maxrate=50000 / vbv_bufsize=62500 / nal_hrd=none / filler=0 / ip_ratio=1.25 / pb_ratio=1.30 / aq=1:0.90
Язык : English
Default : Да
Forced : Нет
Цветовой диапазон : Limited
Основные цвета : BT.601 PAL
Характеристики трансфера : BT.470 System B, BT.470 System G
Коэффициенты матрицы : BT.470 System B, BT.470 System G

Аудио
Идентификатор : 2
Формат : AC-3
Формат/Информация : Audio Coding 3
Параметр Endianness формата : Big
Идентификатор кодека : A_AC3
Продолжительность : 2 ч. 31 м.
Вид битрейта : Постоянный
Битрейт : 384 Кбит/сек
Каналы : 6 каналов
Расположение каналов : Front: L C R, Side: L R, LFE
Частота : 48,0 КГц
Частота кадров : 31,250 кадров/сек (1536 SPF)
Битовая глубина : 16 бит
Метод сжатия : С потерями
Размер потока : 415 Мбайт (15%)
Язык : Russian
Default : Да
Forced : Нет



Скачать Свой.крест.(Валерий.Лонской).[1989.психологический.детектив.DVDRip-AVC].torrent без регистрации
Золото ЗОЛОТАЯ РАЗДАЧА! СКАЧАННОЕ НЕ ЗАСЧИТЫВАЕТСЯ! Золото
Дата: Зарегистрирован   [ Тип: внутренний ] Как тут cкачать?
MAGNET ссылка
MAGNET ссылка


Скачать .torrent

15 KB

Статус: проверено DHT
Скачан: торрент - 20 раз, раздача полностью - 25 раз
Размер: 2,73 GB
Оценка:  - (Голосов: 0)
Поблагодарили: 0
Поделиться ссылкой на эту раздачу с друзьями:
В контактеFacebookОдноклассникиTwitterLivejournalМой МирLiveinternet
 

 
Показать сообщения:    


Вы не можете начинать темы
Вы не можете отвечать на сообщения
Вы не можете редактировать свои сообщения
Вы не можете удалять свои сообщения
Вы не можете голосовать в опросах
Вы не можете прикреплять файлы к сообщениям
Вы можете скачивать файлы